BitTorrentTracker PerecTracker.org
BitTorrentTracker PerecTracker.org
    
Регистрация  ·  Вход
 
 · 
Забыли пароль?

  • Особо тяжкие преступления / High Crimes (Карл Франклин) [2002, США, триллер, драма, криминал, детектив, BDRip HD (720p), SD (480p)] DUB, MVO, AVO, Original + SUB (rus, eng)

    Ответить на тему
     
    Автор Сообщение

    rechyn

    Создавать темы 22-Авг-2015 12:17

           

    [Цитировать]

    Особо тяжкие преступления / High Crimes
    "Все во что ты веришь. Все о чем ты знаешь. Может оказаться ложью"
    7.249 / 10
    -Год выпуска: 2002
    Страна: США
    Жанр: триллер, драма, криминал, детектив
    Продолжительность: 115 мин.
    Перевод: Профессиональный дублированный перевод, многоголосый закадровый перевод и одноголосый закадровый перевод
    Оригинальная аудиодорожка: Есть
    Cубтитры: Русские полные и английские полные
    Режиссёр: Карл Франклин
    Сценарий: Юрий Зельцер, Грейс Кэри Бикли, Джозеф Финдер
    Продюсер: Арнон Милчен, Джанет Янг, Джесси Битон
    Оператор: Тео ван де Санде
    Композитор: Грэм Ревелл
    Художник: Пол Питерс, Гари Коско, Шэрен Дэвис
    Монтаж: Кэрол Кравец
    В ролях: Эшли Джадд, Морган Фриман, Джеймс Кэвизел, Адам Скотт, Аманда Пит, Брюс Дэвисон, Том Бауэр, Хуан Карлос Эрнандез, Майкл Гэстон, Джуд Чикколелла
    Роли дублировали: Елена Шульман, Светлана Репетина, Вадим Гущин, Владимир Маслаков, Максим Сергеев, Сергей Паршин
    Бюджет: $42 000 000
    Сборы в США: $41 543 917
    Сборы в мире: + $22 237 893 = $63 781 810
    Мировая премьера: 3 апреля 2002
    Премьера (РФ): 6 июня 2002, Гемини Киномир
    Релиз на Blu-Ray: 17 июня 2010, Двадцатый Век Фокс СНГ
    Релиз на DVD: 14 ноября 2006, Двадцатый Век Фокс СНГ
    Описание: Преуспевающая в своей деятельности адвокат и счастливая супруга потрясена известием о том, что её муж является секретным военным агентом, работающим под прикрытием. Более того, он ещё и обвинён в совершении государственного военного преступления. Поскольку она готовится защищать своего мужа в военном суде, где не всегда действуют правила, которые она превосходно знает, то ей приходит на помощь военный поверенный, который играет по своим правилам.-Качество исходника: Blu-Ray 1080p (HDClub)
    Качество: BDRip
    Тип: 480p 720p
    Контейнер: m4v
    Видео: 640x364 анаморф 852x364 at 23.976 fps, MPEG-4 AVC, ~1800 kbps avg
    Видео: 1280x544 at 23.976 fps, MPEG-4 AVC, ~6000 kbps avg
    Аудио#1: Russian: 48 kHz, ААС, 2/0 (L,R), ~128.00 / 192.00 kbps avg |Дубляж, Blu-ray EUR|
    Аудио#2: Russian: 48 kHz, ААС, 2/0 (L,R), ~128.00 / 192.00 kbps avg |Многоголосый закадровый, R1|
    Аудио#3: Russian: 48 kHz, ААС, 2/0 (L,R), ~128.00 / 192.00 kbps avg |Одноголосый закадровый, В. Королев|
    Аудио#4: Ukrainian: 48 kHz, ААС, 2/0 (L,R), ~128.00 / 192.00 kbps avg |Многоголосый закадровый,2+2|
    Аудио#5: English: 48 kHz, ААС, 2/0 (L,R), ~128.00 / 192.00 kbps avg
    Аудио#6: English: 48 kHz, ААС, 2/0 (L,R), ~128.00 / 192.00 kbps avg |Director's Commentary|
    Аудио#7: Russian: 48 kHz, AC3, 3/2 (L,C,R,l,r) + LFE ch, ~640.00 kbps avg |Дубляж, Blu-ray EUR|
    Аудио#8: Russian: 48 kHz, AC3, 3/2 (L,C,R,l,r) + LFE ch, ~448.00 kbps avg |Многоголосый закадровый, R1|
    Аудио#9: Russian: 48 kHz, AC3, 3/2 (L,C,R,l,r) + LFE ch, ~640.00 kbps avg |Одноголосый закадровый, В. Королев|
    Аудио#10: Ukrainian: 48 kHz, AC3, 3/2 (L,C,R,l,r) + LFE ch, ~384.00 kbps avg |Многоголосый закадровый, 2+2|
    Аудио#11: English: 48 kHz, AC3, 3/2 (L,C,R,l,r) + LFE ch, ~640.00 kbps avg
    Субтитры №1: Russian: |Полные|
    Субтитры №2: English: |Полные|-

    iTunes Meta Tags for country ru

    Name: Особо тяжкие преступления
    Artist: Carl Franklin
    Genre: Thriller
    Release Date: 2002-04-03T08:00:00Z
    Description: Преуспевающая в своей деятельности адвокат и счастливая супруга потрясена известием о том, что её муж является секретным военным агентом, работающим под прикрытием. Более того, он ещё и обвинён в совершении государственного военного преступления. Поскольку она готовится защищать своего мужа в военном суде, где не всегда действуют правила, которые она превосходно знает, то ей приходит на помощь военный поверенный, который играет по своим правилам.
    Long Description: Преуспевающая в своей деятельности адвокат и счастливая супруга потрясена известием о том, что её муж является секретным военным агентом, работающим под прикрытием. Более того, он ещё и обвинён в совершении государственного военного преступления. Поскольку она готовится защищать своего мужа в военном суде, где не всегда действуют правила, которые она превосходно знает, то ей приходит на помощь военный поверенный, который играет по своим правилам.
    Rating: 16+
    Studio: 20th Century Fox
    Cast: Эшли Джадд, Морган Фриман, Джеймс Кэвизел, Адам Скотт, Аманда Пит, Брюс Дэвисон, Том Бауэр, Хуан Карлос Эрнандез, Майкл Гэстон, Джуд Чикколелла
    Director: Карл Франклин
    Producers: Арнон Милчен, Джанет Янг, Джесси Битон
    Screenwriters: Юрий Зельцер, Грейс Кэри Бикли, Джозеф Финдер
    Copyright: © 2002 Twentieth Century Fox Film Corporation. All rights reserved.
    contentID: 287668257
    XID: Apple:vendor_id:2002-697
    Sort Name: Особо тяжкие преступления

    iTunes Meta Tags for country us

    Name: High Crimes
    Artist: Carl Franklin
    Genre: Thriller
    Release Date: 2002-04-03T08:00:00Z
    Description: Преуспевающая в своей деятельности адвокат и счастливая супруга потрясена известием о том, что её муж является секретным военным агентом, работающим под прикрытием. Более того, он ещё и обвинён в совершении государственного военного преступления. Поскольку она готовится защищать своего мужа в военном суде, где не всегда действуют правила, которые она превосходно знает, то ей приходит на помощь военный поверенный, который играет по своим правилам.
    Long Description: Преуспевающая в своей деятельности адвокат и счастливая супруга потрясена известием о том, что её муж является секретным военным агентом, работающим под прикрытием. Более того, он ещё и обвинён в совершении государственного военного преступления. Поскольку она готовится защищать своего мужа в военном суде, где не всегда действуют правила, которые она превосходно знает, то ей приходит на помощь военный поверенный, который играет по своим правилам.
    Rating: PG-13
    Rating Annotation: Rated PG-13 for violence, sexual content and language.
    Studio: 20th Century Fox
    Cast: Эшли Джадд, Морган Фриман, Джеймс Кэвизел, Адам Скотт, Аманда Пит, Брюс Дэвисон, Том Бауэр, Хуан Карлос Эрнандез, Майкл Гэстон, Джуд Чикколелла
    Director: Карл Франклин
    Producers: Арнон Милчен, Джанет Янг, Джесси Битон
    Screenwriters: Юрий Зельцер, Грейс Кэри Бикли, Джозеф Финдер
    Copyright: © 2002 Twentieth Century Fox Film Corporation Repolished.
    contentID: 287668257
    XID: Apple:vendor_id:2002-697
    Sort Name: High Crimes

    MediaInfo 480p Release

    General
    Complete name : High Crimes.m4v
    Format : MPEG-4
    Codec ID : M4V
    File size : 2.09 GiB
    Duration : 1h 55mn
    Overall bit rate mode : Variable
    Overall bit rate : 2 594 Kbps
    Movie name : High Crimes
    Performer : Carl Franklin
    Director : Карл Франклин
    Actor : Эшли Джадд / Морган Фриман / Джеймс Кэвизел / Адам Скотт / Аманда Пит / Брюс Дэвисон / Том Бауэр / Хуан Карлос Эрнандез / Майкл Гэстон / Джуд Чикколелла
    Screenplay by : Юрий Зельцер / Грейс Кэри Бикли / Джозеф Финдер
    Producer : Арнон Милчен / Джанет Янг / Джесси Битон
    Production studio : 20th Century Fox
    Genre : Thriller
    ContentType : Short Film
    Description : Преуспевающая в своей деятельности адвокат и счастливая супруга потрясена известием о том, что её муж является секретным военным агентом, работающим под прикрытием. Более того, он ещё и обвинён в совершении государственного военного преступления. Поскольку она готовится защищать своего мужа в военном суде, где не всегда действуют правила, которые она превосходно знает, то ей приходит на помощь военный поверенный, который играет по своим правилам.
    Recorded date : UTC 2002-04-03 08:00:00
    Encoded date : UTC 2015-08-06 12:51:35
    Tagged date : UTC 2015-08-06 13:03:29
    Copyright : © 2002 Twentieth Century Fox Film Corporation Repolished.
    Cover : Yes
    Rating : None
    Title/Sort : High Crimes
    LongDescription : Преуспевающая в своей деятельности адвокат и счастливая супруга потрясена известием о том, что её муж является секретным военным агентом, работающим под прикрытием. Более того, он ещё и обвинён в совершении государственного военного преступления. Поскольку она готовится защищать своего мужа в военном суде, где не всегда действуют правила, которые она превосходно знает, то ей приходит на помощь военный поверенный, который играет по своим правилам.
    AppleStoreCatalogID : 287668257
    Vendor : Apple:vendor_id:2002-697
    ContentRating : mpaa|PG-13|300|Rated PG-13 for violence, sexual content and language.
    Video #1
    ID : 1
    Format : AVC
    Format/Info : Advanced Video Codec
    Format profile : Baseline@L3
    Format settings, CABAC : No
    Format settings, ReFrames : 2 frames
    Format settings, GOP : N=1
    Codec ID : avc1
    Codec ID/Info : Advanced Video Coding
    Duration : 1h 55mn
    Bit rate : 1 800 Kbps
    Width : 640 pixels
    Height : 364 pixels
    Display aspect ratio : 2.35:1
    Original display aspect ratio : 2.35:1
    Frame rate mode : Variable
    Frame rate : 23.976 fps
    Minimum frame rate : 23.810 fps
    Maximum frame rate : 24.390 fps
    Color space : YUV
    Chroma subsampling : 4:2:0
    Bit depth : 8 bits
    Scan type : Progressive
    Bits/(Pixel*Frame) : 0.322
    Stream size : 1.45 GiB (69%)
    Title : Main Program
    Writing library : x264 core 130 r2273 b3065e6
    Encoding settings : cabac=0 / ref=2 / deblock=1:0:0 / analyse=0x1:0x111 / me=umh / subme=6 / psy=1 / psy_rd=1.00:0.00 / mixed_ref=1 / me_range=16 / chroma_me=1 / trellis=0 / 8x8dct=0 / cqm=0 / deadzone=21,11 / fast_pskip=1 / chroma_qp_offset=-2 / threads=18 / lookahead_threads=2 / sliced_threads=0 / nr=0 / decimate=1 / interlaced=0 / bluray_compat=0 / constrained_intra=0 / bframes=0 / weightp=0 / keyint=240 / keyint_min=24 / scenecut=40 / intra_refresh=0 / rc_lookahead=40 / rc=2pass / mbtree=1 / bitrate=1800 / ratetol=1.0 / qcomp=0.60 / qpmin=0 / qpmax=69 / qpstep=4 / cplxblur=20.0 / qblur=0.5 / vbv_maxrate=5000 / vbv_bufsize=5000 / nal_hrd=none / ip_ratio=1.40 / aq=1:1.00
    Language : English
    Encoded date : UTC 2015-08-06 12:51:35
    Tagged date : UTC 2015-08-06 12:52:01
    Color range : Limited
    Color primaries : BT.709
    Transfer characteristics : BT.709
    Matrix coefficients : BT.709
    Video #2
    ID : 11
    Format : JPEG
    Codec ID : jpeg
    Duration : 1h 55mn
    Bit rate mode : Variable
    Bit rate : 1 342 bps
    Width : 640 pixels
    Height : 273 pixels
    Display aspect ratio : 2.35:1
    Frame rate mode : Variable
    Frame rate : 0.005 fps
    Minimum frame rate : 0.002 fps
    Maximum frame rate : 0.017 fps
    Color space : YUV
    Chroma subsampling : 4:2:0
    Bit depth : 8 bits
    Compression mode : Lossy
    Bits/(Pixel*Frame) : 1.536
    Stream size : 1.15 MiB (0%)
    Title : Chapter Images
    Language : English
    Encoded date : UTC 2015-08-06 12:52:07
    Tagged date : UTC 2015-08-06 12:52:08
    Audio #1
    ID : 2
    Format : AAC
    Format/Info : Advanced Audio Codec
    Format profile : LC
    Codec ID : 40
    Duration : 1h 55mn
    Bit rate mode : Variable
    Bit rate : 132 Kbps
    Maximum bit rate : 225 Kbps
    Channel(s) : 2 channels
    Channel positions : Front: L R
    Sampling rate : 48.0 KHz
    Compression mode : Lossy
    Stream size : 108 MiB (5%)
    Title : Russian DUB Blu-ray EUR Stereo
    Language : Russian
    Encoded date : UTC 2015-08-06 12:51:35
    Tagged date : UTC 2015-08-06 12:51:44
    Audio #2
    ID : 3
    Format : AAC
    Format/Info : Advanced Audio Codec
    Format profile : LC
    Codec ID : 40
    Duration : 1h 55mn
    Bit rate mode : Variable
    Bit rate : 132 Kbps
    Maximum bit rate : 218 Kbps
    Channel(s) : 2 channels
    Channel positions : Front: L R
    Sampling rate : 48.0 KHz
    Compression mode : Lossy
    Stream size : 108 MiB (5%)
    Title : Russian MVO R1 Stereo
    Language : Russian
    Encoded date : UTC 2015-08-06 12:51:35
    Tagged date : UTC 2015-08-06 12:51:44
    Audio #3
    ID : 4
    Format : AAC
    Format/Info : Advanced Audio Codec
    Format profile : LC
    Codec ID : 40
    Duration : 1h 55mn
    Bit rate mode : Variable
    Bit rate : 132 Kbps
    Maximum bit rate : 221 Kbps
    Channel(s) : 2 channels
    Channel positions : Front: L R
    Sampling rate : 48.0 KHz
    Compression mode : Lossy
    Stream size : 108 MiB (5%)
    Title : Russian AVO V.Korolev Stereo
    Language : Russian
    Encoded date : UTC 2015-08-06 12:51:35
    Tagged date : UTC 2015-08-06 12:51:44
    Audio #4
    ID : 5
    Format : AAC
    Format/Info : Advanced Audio Codec
    Format profile : LC
    Codec ID : 40
    Duration : 1h 55mn
    Bit rate mode : Variable
    Bit rate : 123 Kbps
    Maximum bit rate : 227 Kbps
    Channel(s) : 2 channels
    Channel positions : Front: L R
    Sampling rate : 48.0 KHz
    Compression mode : Lossy
    Stream size : 101 MiB (5%)
    Title : Ukrainian MVO 2+2 Stereo
    Language : Ukrainian
    Encoded date : UTC 2015-08-06 12:51:35
    Tagged date : UTC 2015-08-06 12:51:44
    Audio #5
    ID : 6
    Format : AAC
    Format/Info : Advanced Audio Codec
    Format profile : LC
    Codec ID : 40
    Duration : 1h 55mn
    Bit rate mode : Variable
    Bit rate : 132 Kbps
    Maximum bit rate : 223 Kbps
    Channel(s) : 2 channels
    Channel positions : Front: L R
    Sampling rate : 48.0 KHz
    Compression mode : Lossy
    Stream size : 108 MiB (5%)
    Title : English Stereo
    Language : English
    Encoded date : UTC 2015-08-06 12:51:35
    Tagged date : UTC 2015-08-06 12:51:44
    Audio #6
    ID : 7
    Format : AAC
    Format/Info : Advanced Audio Codec
    Format profile : LC
    Codec ID : 40
    Duration : 1h 55mn
    Bit rate mode : Variable
    Bit rate : 132 Kbps
    Maximum bit rate : 205 Kbps
    Channel(s) : 2 channels
    Channel positions : Front: L R
    Sampling rate : 48.0 KHz
    Compression mode : Lossy
    Stream size : 108 MiB (5%)
    Title : English Director's Commentary Stereo
    Language : English
    Encoded date : UTC 2015-08-06 12:51:35
    Tagged date : UTC 2015-08-06 12:51:44
    Text #1
    ID : 8
    Format : Timed Text
    Muxing mode : sbtl
    Codec ID : tx3g
    Duration : 1h 49mn
    Bit rate mode : Variable
    Bit rate : 96 bps
    Stream size : 77.3 KiB (0%)
    Title : Russian Subtitle
    Language : Russian
    Encoded date : UTC 2015-08-06 12:51:35
    Tagged date : UTC 2015-08-06 12:51:35
    Text #2
    ID : 9
    Format : Timed Text
    Muxing mode : sbtl
    Codec ID : tx3g
    Duration : 1h 49mn
    Bit rate mode : Variable
    Bit rate : 61 bps
    Stream size : 48.8 KiB (0%)
    Title : English Subtitle
    Language : English
    Encoded date : UTC 2015-08-06 12:51:35
    Tagged date : UTC 2015-08-06 12:51:35
    Menu #1
    00:00:00.000 : Massacre (Main Titles)
    00:04:09.040 : The Defense Attorney
    00:07:42.212 : Someone in the House
    00:09:34.115 : Under Arrest
    00:12:13.775 : Jackie
    00:13:51.247 : San Lazaro
    00:16:03.379 : Ron or Tom?
    00:18:57.636 : Military Law
    00:21:13.772 : Tom's Story
    00:25:38.328 : Charlie Grimes
    00:29:09.289 : The Wild Card
    00:35:08.273 : Dead Witnesses
    00:37:00.218 : The Deal
    00:38:57.126 : Intruder
    00:40:18.875 : Unethical Repartee
    00:41:42.041 : The Polygraph Test
    00:42:57.658 : A Flawed Investigation
    00:47:54.205 : Lying Without Lying
    00:51:12.194 : Embry's Friends
    00:55:27.908 : Sick Things
    00:57:53.929 : The Witness
    01:01:33.440 : A Reason to Slip
    01:05:05.360 : Inadmissible Evidence
    01:09:16.069 : General Marks
    01:10:13.376 : Gambit
    01:12:00.316 : The Cover-Up
    01:17:10.918 : Drunk Again
    01:19:04.406 : The "Accident"
    01:22:04.169 : Merry Christmas
    01:24:27.020 : Classified Documents
    01:27:13.728 : A Matter of Record
    01:32:13.695 : The Department's Decision
    01:35:37.482 : The Ambidextrous Killer
    01:40:06.417 : Trained to Kill
    01:47:16.472 : Grimes & Grimaldi
    01:50:23.700 : End Titles
    Menu #2
    ID : 10
    Codec ID : text
    Duration : 1h 55mn
    Title : Chapter Titles
    Language : English
    Encoded date : UTC 2015-08-06 12:52:01
    Tagged date : UTC 2015-08-06 12:52:01
    00:00:00.000 : Massacre (Main Titles)
    00:04:09.040 : The Defense Attorney
    00:07:42.212 : Someone in the House
    00:09:34.115 : Under Arrest
    00:12:13.775 : Jackie
    00:13:51.247 : San Lazaro
    00:16:03.379 : Ron or Tom?
    00:18:57.636 : Military Law
    00:21:13.772 : Tom's Story
    00:25:38.328 : Charlie Grimes
    00:29:09.289 : The Wild Card
    00:35:08.273 : Dead Witnesses
    00:37:00.218 : The Deal
    00:38:57.126 : Intruder
    00:40:18.875 : Unethical Repartee
    00:41:42.041 : The Polygraph Test
    00:42:57.658 : A Flawed Investigation
    00:47:54.205 : Lying Without Lying
    00:51:12.194 : Embry's Friends
    00:55:27.908 : Sick Things
    00:57:53.929 : The Witness
    01:01:33.440 : A Reason to Slip
    01:05:05.360 : Inadmissible Evidence
    01:09:16.069 : General Marks
    01:10:13.376 : Gambit
    01:12:00.316 : The Cover-Up
    01:17:10.918 : Drunk Again
    01:19:04.406 : The "Accident"
    01:22:04.169 : Merry Christmas
    01:24:27.020 : Classified Documents
    01:27:13.728 : A Matter of Record
    01:32:13.695 : The Department's Decision
    01:35:37.482 : The Ambidextrous Killer
    01:40:06.417 : Trained to Kill
    01:47:16.472 : Grimes & Grimaldi
    01:50:23.700 : End Titles
    Bit rate mode : VBR

    MediaInfo 720p Release

    General
    Complete name : High Crimes (HD).m4v
    Format : MPEG-4
    Codec ID : M4V
    File size : 7.99 GiB
    Duration : 1h 55mn
    Overall bit rate mode : Variable
    Overall bit rate : 9 927 Kbps
    Movie name : High Crimes
    Performer : Carl Franklin
    Director : Карл Франклин
    Actor : Эшли Джадд / Морган Фриман / Джеймс Кэвизел / Адам Скотт / Аманда Пит / Брюс Дэвисон / Том Бауэр / Хуан Карлос Эрнандез / Майкл Гэстон / Джуд Чикколелла
    Screenplay by : Юрий Зельцер / Грейс Кэри Бикли / Джозеф Финдер
    Producer : Арнон Милчен / Джанет Янг / Джесси Битон
    Production studio : 20th Century Fox
    Genre : Thriller
    ContentType : Short Film
    Description : Преуспевающая в своей деятельности адвокат и счастливая супруга потрясена известием о том, что её муж является секретным военным агентом, работающим под прикрытием. Более того, он ещё и обвинён в совершении государственного военного преступления. Поскольку она готовится защищать своего мужа в военном суде, где не всегда действуют правила, которые она превосходно знает, то ей приходит на помощь военный поверенный, который играет по своим правилам.
    Recorded date : UTC 2002-04-03 08:00:00
    Encoded date : UTC 2015-08-06 09:35:06
    Tagged date : UTC 2015-08-06 09:52:10
    Copyright : © 2002 Twentieth Century Fox Film Corporation Repolished.
    Cover : Yes
    Rating : None
    Title/Sort : High Crimes
    LongDescription : Преуспевающая в своей деятельности адвокат и счастливая супруга потрясена известием о том, что её муж является секретным военным агентом, работающим под прикрытием. Более того, он ещё и обвинён в совершении государственного военного преступления. Поскольку она готовится защищать своего мужа в военном суде, где не всегда действуют правила, которые она превосходно знает, то ей приходит на помощь военный поверенный, который играет по своим правилам.
    HDVideo : Yes
    AppleStoreCatalogID : 287668257
    Vendor : Apple:vendor_id:2002-697
    ContentRating : mpaa|PG-13|300|Rated PG-13 for violence, sexual content and language.
    Video #1
    ID : 1
    Format : AVC
    Format/Info : Advanced Video Codec
    Format profile : High@L3.1
    Format settings, CABAC : No
    Format settings, ReFrames : 3 frames
    Codec ID : avc1
    Codec ID/Info : Advanced Video Coding
    Duration : 1h 55mn
    Source duration : 1h 55mn
    Bit rate : 6 000 Kbps
    Width : 1 280 pixels
    Height : 544 pixels
    Display aspect ratio : 2.35:1
    Frame rate mode : Variable
    Frame rate : 23.976 fps
    Minimum frame rate : 23.810 fps
    Maximum frame rate : 24.390 fps
    Color space : YUV
    Chroma subsampling : 4:2:0
    Bit depth : 8 bits
    Scan type : Progressive
    Bits/(Pixel*Frame) : 0.359
    Stream size : 4.82 GiB (60%)
    Source stream size : 4.82 GiB (60%)
    Title : Main Program
    Writing library : x264 core 130 r2273 b3065e6
    Encoding settings : cabac=0 / ref=3 / deblock=1:-3:-2 / analyse=0x3:0x113 / me=umh / subme=9 / psy=1 / psy_rd=0.80:0.25 / mixed_ref=1 / me_range=32 / chroma_me=1 / trellis=0 / 8x8dct=1 / cqm=0 / deadzone=6,6 / fast_pskip=0 / chroma_qp_offset=-2 / threads=18 / lookahead_threads=1 / sliced_threads=0 / nr=0 / decimate=0 / interlaced=0 / bluray_compat=0 / constrained_intra=0 / bframes=3 / b_pyramid=0 / b_adapt=2 / b_bias=0 / direct=1 / weightb=0 / open_gop=0 / weightp=0 / keyint=240 / keyint_min=24 / scenecut=40 / intra_refresh=0 / rc_lookahead=40 / rc=2pass / mbtree=1 / bitrate=6000 / ratetol=1.0 / qcomp=0.80 / qpmin=0 / qpmax=69 / qpstep=4 / cplxblur=20.0 / qblur=0.5 / vbv_maxrate=9500 / vbv_bufsize=9500 / nal_hrd=none / ip_ratio=1.10 / aq=1:0.50
    Language : English
    Encoded date : UTC 2015-08-06 09:35:06
    Tagged date : UTC 2015-08-06 09:36:03
    Color range : Limited
    Color primaries : BT.709
    Transfer characteristics : BT.709
    Matrix coefficients : BT.709
    Video #2
    ID : 16
    Format : JPEG
    Codec ID : jpeg
    Duration : 1h 55mn
    Bit rate mode : Variable
    Bit rate : 1 423 bps
    Width : 640 pixels
    Height : 272 pixels
    Display aspect ratio : 2.35:1
    Frame rate mode : Variable
    Frame rate : 0.005 fps
    Minimum frame rate : 0.002 fps
    Maximum frame rate : 0.017 fps
    Color space : YUV
    Chroma subsampling : 4:2:0
    Bit depth : 8 bits
    Compression mode : Lossy
    Bits/(Pixel*Frame) : 1.635
    Stream size : 1.22 MiB (0%)
    Title : Chapter Images
    Language : English
    Encoded date : UTC 2015-08-06 09:46:27
    Tagged date : UTC 2015-08-06 09:46:29
    Audio #1
    ID : 2
    Format : AAC
    Format/Info : Advanced Audio Codec
    Format profile : LC
    Codec ID : 40
    Duration : 1h 55mn
    Bit rate mode : Variable
    Bit rate : 197 Kbps
    Maximum bit rate : 323 Kbps
    Channel(s) : 2 channels
    Channel positions : Front: L R
    Sampling rate : 48.0 KHz
    Compression mode : Lossy
    Stream size : 162 MiB (2%)
    Title : Russian DUB Blu-ray EUR Stereo
    Language : Russian
    Encoded date : UTC 2015-08-06 09:35:06
    Tagged date : UTC 2015-08-06 09:35:28
    Audio #2
    ID : 3
    Format : AAC
    Format/Info : Advanced Audio Codec
    Format profile : LC
    Codec ID : 40
    Duration : 1h 55mn
    Bit rate mode : Variable
    Bit rate : 197 Kbps
    Maximum bit rate : 321 Kbps
    Channel(s) : 2 channels
    Channel positions : Front: L R
    Sampling rate : 48.0 KHz
    Compression mode : Lossy
    Stream size : 162 MiB (2%)
    Title : Russian MVO R1 Stereo
    Language : Russian
    Encoded date : UTC 2015-08-06 09:35:06
    Tagged date : UTC 2015-08-06 09:35:28
    Audio #3
    ID : 4
    Format : AAC
    Format/Info : Advanced Audio Codec
    Format profile : LC
    Codec ID : 40
    Duration : 1h 55mn
    Bit rate mode : Variable
    Bit rate : 197 Kbps
    Maximum bit rate : 331 Kbps
    Channel(s) : 2 channels
    Channel positions : Front: L R
    Sampling rate : 48.0 KHz
    Compression mode : Lossy
    Stream size : 162 MiB (2%)
    Title : Russian AVO V.Korolev Stereo
    Language : Russian
    Encoded date : UTC 2015-08-06 09:35:06
    Tagged date : UTC 2015-08-06 09:35:28
    Audio #4
    ID : 5
    Format : AAC
    Format/Info : Advanced Audio Codec
    Format profile : LC
    Codec ID : 40
    Duration : 1h 55mn
    Bit rate mode : Variable
    Bit rate : 176 Kbps
    Maximum bit rate : 317 Kbps
    Channel(s) : 2 channels
    Channel positions : Front: L R
    Sampling rate : 48.0 KHz
    Compression mode : Lossy
    Stream size : 145 MiB (2%)
    Title : Ukrainian MVO 2+2 Stereo
    Language : Ukrainian
    Encoded date : UTC 2015-08-06 09:35:06
    Tagged date : UTC 2015-08-06 09:35:28
    Audio #5
    ID : 6
    Format : AAC
    Format/Info : Advanced Audio Codec
    Format profile : LC
    Codec ID : 40
    Duration : 1h 55mn
    Bit rate mode : Variable
    Bit rate : 197 Kbps
    Maximum bit rate : 328 Kbps
    Channel(s) : 2 channels
    Channel positions : Front: L R
    Sampling rate : 48.0 KHz
    Compression mode : Lossy
    Stream size : 163 MiB (2%)
    Title : English Stereo
    Language : English
    Encoded date : UTC 2015-08-06 09:35:06
    Tagged date : UTC 2015-08-06 09:35:28
    Audio #6
    ID : 7
    Format : AAC
    Format/Info : Advanced Audio Codec
    Format profile : LC
    Codec ID : 40
    Duration : 1h 55mn
    Bit rate mode : Variable
    Bit rate : 197 Kbps
    Maximum bit rate : 287 Kbps
    Channel(s) : 2 channels
    Channel positions : Front: L R
    Sampling rate : 48.0 KHz
    Compression mode : Lossy
    Stream size : 162 MiB (2%)
    Title : English Director's Commentary Stereo
    Language : English
    Encoded date : UTC 2015-08-06 09:35:06
    Tagged date : UTC 2015-08-06 09:35:28
    Audio #7
    ID : 8
    Format : AC-3
    Format/Info : Audio Coding 3
    Mode extension : CM (complete main)
    Format settings, Endianness : Big
    Codec ID : ac-3
    Duration : 1h 55mn
    Bit rate mode : Constant
    Bit rate : 640 Kbps
    Channel(s) : 6 channels
    Channel positions : Front: L C R, Side: L R, LFE
    Sampling rate : 48.0 KHz
    Bit depth : 16 bits
    Compression mode : Lossy
    Stream size : 527 MiB (6%)
    Title : Russian DUB Blu-ray EUR DD 5.1
    Language : Russian
    Encoded date : UTC 2015-08-06 09:35:07
    Tagged date : UTC 2015-08-06 09:35:22
    Audio #8
    ID : 9
    Format : AC-3
    Format/Info : Audio Coding 3
    Mode extension : CM (complete main)
    Format settings, Endianness : Big
    Codec ID : ac-3
    Duration : 1h 55mn
    Bit rate mode : Constant
    Bit rate : 448 Kbps
    Channel(s) : 6 channels
    Channel positions : Front: L C R, Side: L R, LFE
    Sampling rate : 48.0 KHz
    Bit depth : 16 bits
    Compression mode : Lossy
    Stream size : 369 MiB (5%)
    Title : Russian MVO R1 DD 5.1
    Language : Russian
    Encoded date : UTC 2015-08-06 09:35:07
    Tagged date : UTC 2015-08-06 09:46:11
    Audio #9
    ID : 10
    Format : AC-3
    Format/Info : Audio Coding 3
    Mode extension : CM (complete main)
    Format settings, Endianness : Big
    Codec ID : ac-3
    Duration : 1h 55mn
    Bit rate mode : Constant
    Bit rate : 640 Kbps
    Channel(s) : 6 channels
    Channel positions : Front: L C R, Side: L R, LFE
    Sampling rate : 48.0 KHz
    Bit depth : 16 bits
    Compression mode : Lossy
    Stream size : 527 MiB (6%)
    Title : Russian AVO V.Korolev DD 5.1
    Language : Russian
    Encoded date : UTC 2015-08-06 09:35:07
    Tagged date : UTC 2015-08-06 09:35:22
    Audio #10
    ID : 11
    Format : AC-3
    Format/Info : Audio Coding 3
    Mode extension : CM (complete main)
    Format settings, Endianness : Big
    Codec ID : ac-3
    Duration : 1h 55mn
    Bit rate mode : Constant
    Bit rate : 384 Kbps
    Channel(s) : 6 channels
    Channel positions : Front: L C R, Side: L R, LFE
    Sampling rate : 48.0 KHz
    Bit depth : 16 bits
    Compression mode : Lossy
    Stream size : 316 MiB (4%)
    Title : Ukrainian MVO 2+2 DD 5.1
    Language : Ukrainian
    Encoded date : UTC 2015-08-06 09:35:07
    Tagged date : UTC 2015-08-06 09:46:11
    Audio #11
    ID : 12
    Format : AC-3
    Format/Info : Audio Coding 3
    Mode extension : CM (complete main)
    Format settings, Endianness : Big
    Codec ID : ac-3
    Duration : 1h 55mn
    Bit rate mode : Constant
    Bit rate : 640 Kbps
    Channel(s) : 6 channels
    Channel positions : Front: L C R, Side: L R, LFE
    Sampling rate : 48.0 KHz
    Bit depth : 16 bits
    Compression mode : Lossy
    Stream size : 527 MiB (6%)
    Title : English DD 5.1
    Language : English
    Encoded date : UTC 2015-08-06 09:35:07
    Tagged date : UTC 2015-08-06 09:35:22
    Text #1
    ID : 13
    Format : Timed Text
    Muxing mode : sbtl
    Codec ID : tx3g
    Duration : 1h 49mn
    Bit rate mode : Variable
    Bit rate : 96 bps
    Stream size : 77.3 KiB (0%)
    Title : Russian Subtitle
    Language : Russian
    Encoded date : UTC 2015-08-06 09:35:07
    Tagged date : UTC 2015-08-06 09:35:07
    Text #2
    ID : 14
    Format : Timed Text
    Muxing mode : sbtl
    Codec ID : tx3g
    Duration : 1h 49mn
    Bit rate mode : Variable
    Bit rate : 61 bps
    Stream size : 48.8 KiB (0%)
    Title : English Subtitle
    Language : English
    Encoded date : UTC 2015-08-06 09:35:07
    Tagged date : UTC 2015-08-06 09:35:07
    Menu #1
    00:00:00.000 : Massacre (Main Titles)
    00:04:09.040 : The Defense Attorney
    00:07:42.212 : Someone in the House
    00:09:34.115 : Under Arrest
    00:12:13.775 : Jackie
    00:13:51.247 : San Lazaro
    00:16:03.379 : Ron or Tom?
    00:18:57.636 : Military Law
    00:21:13.772 : Tom's Story
    00:25:38.328 : Charlie Grimes
    00:29:09.289 : The Wild Card
    00:35:08.273 : Dead Witnesses
    00:37:00.218 : The Deal
    00:38:57.126 : Intruder
    00:40:18.875 : Unethical Repartee
    00:41:42.041 : The Polygraph Test
    00:42:57.658 : A Flawed Investigation
    00:47:54.205 : Lying Without Lying
    00:51:12.194 : Embry's Friends
    00:55:27.908 : Sick Things
    00:57:53.929 : The Witness
    01:01:33.440 : A Reason to Slip
    01:05:05.360 : Inadmissible Evidence
    01:09:16.069 : General Marks
    01:10:13.376 : Gambit
    01:12:00.316 : The Cover-Up
    01:17:10.918 : Drunk Again
    01:19:04.406 : The "Accident"
    01:22:04.169 : Merry Christmas
    01:24:27.020 : Classified Documents
    01:27:13.728 : A Matter of Record
    01:32:13.695 : The Department's Decision
    01:35:37.482 : The Ambidextrous Killer
    01:40:06.417 : Trained to Kill
    01:47:16.472 : Grimes & Grimaldi
    01:50:23.700 : End Titles
    Menu #2
    ID : 15
    Codec ID : text
    Duration : 1h 55mn
    Title : Chapter Titles
    Language : English
    Encoded date : UTC 2015-08-06 09:46:11
    Tagged date : UTC 2015-08-06 09:46:11
    00:00:00.000 : Massacre (Main Titles)
    00:04:09.040 : The Defense Attorney
    00:07:42.212 : Someone in the House
    00:09:34.115 : Under Arrest
    00:12:13.775 : Jackie
    00:13:51.247 : San Lazaro
    00:16:03.379 : Ron or Tom?
    00:18:57.636 : Military Law
    00:21:13.772 : Tom's Story
    00:25:38.328 : Charlie Grimes
    00:29:09.289 : The Wild Card
    00:35:08.273 : Dead Witnesses
    00:37:00.218 : The Deal
    00:38:57.126 : Intruder
    00:40:18.875 : Unethical Repartee
    00:41:42.041 : The Polygraph Test
    00:42:57.658 : A Flawed Investigation
    00:47:54.205 : Lying Without Lying
    00:51:12.194 : Embry's Friends
    00:55:27.908 : Sick Things
    00:57:53.929 : The Witness
    01:01:33.440 : A Reason to Slip
    01:05:05.360 : Inadmissible Evidence
    01:09:16.069 : General Marks
    01:10:13.376 : Gambit
    01:12:00.316 : The Cover-Up
    01:17:10.918 : Drunk Again
    01:19:04.406 : The "Accident"
    01:22:04.169 : Merry Christmas
    01:24:27.020 : Classified Documents
    01:27:13.728 : A Matter of Record
    01:32:13.695 : The Department's Decision
    01:35:37.482 : The Ambidextrous Killer
    01:40:06.417 : Trained to Kill
    01:47:16.472 : Grimes & Grimaldi
    01:50:23.700 : End Titles
    Bit rate mode : VBR

    x264 лог 480p Release

    HandBrakeCLI -i "High.Crimes.mkv" -t 1 -o High.Crimes.480p.eng.m4v -f mp4 -I -O -w 640 -l 364 --crop 130:130:0:0 --custom-anamorphic --modulus 4 --pixel-aspect 852:640 -e x264 -b 1800 -2 -a none -x cabac=0:ref=2:me=umh:bframes=0:weightp=0:subq=6:8x8dct=0:trellis=0:vbv-maxrate=5000:vbv-bufsize=5000 --verbose=1
    x264 [info]: frame I:2768  Avg QP:15.76  size: 30308  PSNR Mean Y:47.12 U:51.54 V:52.72 Avg:48.08 Global:47.55
    x264 [info]: frame P:163001 Avg QP:18.16  size:  9026  PSNR Mean Y:44.49 U:50.71 V:51.60 Avg:45.48 Global:44.84
    x264 [info]: mb I  I16..4: 27.5%  0.0% 72.5%
    x264 [info]: mb P  I16..4:  0.9%  0.0%  2.2%  P16..4: 48.1% 25.7% 10.9%  0.0%  0.0%    skip:12.1%
    x264 [info]: coded y,uvDC,uvAC intra: 81.4% 79.7% 60.7% inter: 35.2% 24.8% 5.4%
    x264 [info]: i16 v,h,dc,p: 41% 10% 12% 38%
    x264 [info]: i4 v,h,dc,ddl,ddr,vr,hd,vl,hu: 28% 12% 17%  7%  8%  9%  6%  8%  5%
    x264 [info]: i8c dc,h,v,p: 50% 15% 26%  9%
    x264 [info]: ref P L0: 70.1% 29.9%
    x264 [info]: SSIM Mean Y:0.9795295 (16.889db)
    x264 [info]: PSNR Mean Y:44.533 U:50.725 V:51.614 Avg:45.528 Global:44.872 kb/s:1799.40

    x264 лог 720p Release

    HandBrakeCLI -i High.Crimes.mkv -t 1 -o High.Crimes.720p.eng.m4v -f mp4 -4 -O -w 1280 -l 544 --crop 130:130:0:0 --modulus 16 -e x264 -b 6000 -2 -a none -x cabac=0:ref=3:me=umh:b-pyramid=none:b-adapt=2:weightb=0:trellis=0:weightp=0:vbv-maxrate=9500:vbv-bufsize=9500:subq=9:merange=32:deblock=-3,-2:qcomp=0.80:qpmin=0:qpmax=69:fast_pskip=0:aq-strength=0.5:no-dct-decimate=1:psy-rd=0.80,0.25:ipratio=1.1:pbratio=1.1:deadzone-inter=6:deadzone-intra=6 --verbose=1
    x264 [info]: frame I:1555  Avg QP:19.79  size: 77556  PSNR Mean Y:44.83 U:50.28 V:51.63 Avg:45.95 Global:45.52
    x264 [info]: frame P:51771 Avg QP:20.61  size: 49164  PSNR Mean Y:44.40 U:51.15 V:52.37 Avg:45.55 Global:44.94
    x264 [info]: frame B:112443 Avg QP:21.87  size: 22360  PSNR Mean Y:42.95 U:50.88 V:52.32 Avg:44.21 Global:43.57
    x264 [info]: consecutive B-frames:  2.1% 15.1% 21.5% 61.3%
    x264 [info]: mb I  I16..4:  9.8% 71.2% 19.0%
    x264 [info]: mb P  I16..4:  2.0% 12.4%  2.3%  P16..4: 45.4% 22.7% 10.2%  0.0%  0.0%    skip: 5.1%
    x264 [info]: mb B  I16..4:  0.1%  1.7%  0.2%  B16..8: 34.0% 10.6%  1.8%  direct: 9.0%  skip:42.6%  L0:36.9% L1:36.9% BI:26.1%
    x264 [info]: 8x8 transform intra:75.3% inter:44.0%
    x264 [info]: coded y,uvDC,uvAC intra: 91.2% 67.1% 30.5% inter: 46.3% 18.6% 3.5%
    x264 [info]: i16 v,h,dc,p: 41% 13%  9% 37%
    x264 [info]: i8 v,h,dc,ddl,ddr,vr,hd,vl,hu:  9%  7%  9% 11% 15% 14% 13% 11% 10%
    x264 [info]: i4 v,h,dc,ddl,ddr,vr,hd,vl,hu: 12%  9%  3% 11% 17% 16% 13% 11%  9%
    x264 [info]: i8c dc,h,v,p: 48% 18% 22% 11%
    x264 [info]: ref P L0: 63.7% 22.3% 14.0%
    x264 [info]: ref B L0: 75.6% 24.4%
    x264 [info]: SSIM Mean Y:0.9651974 (14.584db)
    x264 [info]: PSNR Mean Y:43.419 U:50.962 V:52.330 Avg:44.642 Global:43.969 kb/s:5993.80

    Скриншоты 480p Release

    Скриншоты 720p Release

    Цитата:
    Цитата:

    • Сохранены и подписаны оригинальные главы как на Blu-ray.
    • Все звуковые дорожки и сабы взяты из этой раздачи.
    -

    Релиз подготовлен для просмотра на Apple TV, iPad, iPhone, iPod Touch.
    Для просмотра данного релиза на компьютере с ОС Windows рекомендуется использовать VLC media player
    Скачать .torrent

    Скачать торрент-файл бесплатно и на максимальной скорости!

    Как скачивать? · Что такое торрент? · Рейтинг и ограничения

    !ВНИМАНИЕ!
    Сайт не распространяет и не хранит электронные версии произведений, а занимается лишь лишь предоставлением доступа к создаваемому пользователями каталогу ссылок на торрент-файлы, которые содержат только списки хеш-сумм, убедительная просьба с жалобами обращаться напрямую к пользователю. Файлы для обмена на трекере предоставлены пользователями сайта, и администрация не несёт ответственности за их содержание. Просьба не заливать файлы, защищенные авторскими правами, а также файлы нелегального содержания!


    _________________
    [Профиль] [ЛС]
    Показать сообщения:    
    Ответить на тему

    Текущее время: Сегодня, в 04:06

    Часовой пояс: GMT + 2



    Вы не можете начинать темы
    Вы не можете отвечать на сообщения
    Вы не можете редактировать свои сообщения
    Вы не можете удалять свои сообщения
    Вы не можете голосовать в опросах
    Вы не можете прикреплять файлы к сообщениям
    Вы не можете скачивать файлы