BitTorrentTracker PerecTracker.org
BitTorrentTracker PerecTracker.org
    
Регистрация  ·  Вход
 
 · 
Забыли пароль?

  • Под прицелом / Silent Trigger (Рассел Малкэй) [1996, Канада, Великобритания, боевик, триллер, драма, BDRip HD (720p)] DVO, AVO, Original + SUB (rus, eng, ger)

    Ответить на тему
     
    Автор Сообщение

    rechyn

    Создавать темы 22-Авг-2015 12:17

           

    [Цитировать]

    Под прицелом / Silent Trigger
    "They trained him to kill. Now they want him dead"
    6.196 / 10
    -Год выпуска: 1996
    Страна: Канада, Великобритания
    Жанр: боевик, триллер, драма
    Продолжительность: 93 мин.
    Перевод: Двухголосый закадровый перевод и одноголосый закадровый перевод
    Оригинальная аудиодорожка: Есть
    Cубтитры: Русские полные, английские полные и немецкие полные
    Режиссёр: Рассел Малкэй
    Сценарий: Серджо Алтери
    Продюсер: Николас Клермон, Сильвио Мураглиа, Паскаль Борно
    Оператор: Дэвид Франко
    Композитор: Стефано Майнетти
    Художник: Жиль Аирд, Жан Каземирчук, Люк Дж. Беланд
    Монтаж: Ив Ланглуа
    В ролях: Дольф Лундгрен, Джина Беллман, Конрад Данн, Кристофер Хейердал, Эмма Стивенс, Александрия Абер, Рейнольд Робинсон, Дэйл Хэйес, Эрин Симс, Джонатан Роберт Рондо
    Бюджет: $15 000 000
    Сборы в США: $76 382
    Мировая премьера: 4 июля 1996
    Релиз на DVD: 30 апреля 2009, Русское счастье
    Описание: "Снайпер", суперкомандос, работающий на "Агентство" - законспирированную правительственную организацию, управляемую "Координатором". "Снайпер" начинает сомневаться, всматриваться в глаза и лица своих мишеней.
    А его "Контролер", второй член снайперской команды, несмотря на молодость, обладает жесткой хваткой и решительностью наемного убийцы. После того, как первая миссия их снайперской команды закончилась провалом и едва их не погубила, они вновь сталкиваются при выполнении задания для "Агентства", давшего им шанс вернуться в систему.
    Их мишень: автомобиль, который должен проехать по скоростному шоссе на рассвете. Им противостоят не только сомнения, призраки и беззащитная мишень. "Координатор" отдал приказ "Контролеру" уничтожить "Снайпера", если тот вновь провалит операцию.-Качество исходника: BD-Remux 1080p (HDClub)
    Качество: BDRip
    Тип: 480p 720p
    Контейнер: m4v
    Видео: 640x364 анаморф 852x364 at 23.976 fps, MPEG-4 AVC, ~1800 kbps avg
    Видео: 1280x544 at 23.976 fps, MPEG-4 AVC, ~7000 kbps avg
    Аудио#1: Russian: 48 kHz, ААС, 2/0 (L,R), ~128.00 / 192.00 kbps avg |Двухголосый закадровый|
    Аудио#2: Russian: 48 kHz, ААС, 2/0 (L,R), ~128.00 / 192.00 kbps avg |Двухголосый закадровый, РТР|
    Аудио#3: Russian: 48 kHz, ААС, 2/0 (L,R), ~128.00 / 192.00 kbps avg |Одноголосый закадровый, С. Визгунов|
    Аудио#4: Russian: 48 kHz, ААС, 2/0 (L,R), ~128.00 / 192.00 kbps avg |Одноголосый закадровый, П. Карцев|
    Аудио#5: English: 48 kHz, ААС, 2/0 (L,R), ~128.00 / 192.00 kbps avg
    Аудио#6: Russian: 48 kHz, AC3, 3/2 (L,C,R,l,r) + LFE ch, ~640.00 kbps avg |Одноголосый закадровый, С. Визгунов|
    Аудио#7: English: 48 kHz, AC3, 3/2 (L,C,R,l,r) + LFE ch, ~640.00 kbps avg
    Субтитры №1: Russian: |Полные|
    Субтитры №2: English: |Полные|
    Субтитры №3: German: |Полные|-

    Знаете ли Вы, что...
  • Писатель Серджо Алтери позже написал серию из трех романов под названием «Снайпер» (изданный в Италии) основанный на его сценарии и характере.
  • Первоначально сюжет фильма рассказывал о снайпере (Лундгрен), которому «заказали» крутого полицейского (Брэндон Ли), позже они должны были объединиться против общего врага. Брэндон успел подписать контракт и собирался приступить к сьёмкам после завершения работы над фильмом «Ворон» (1994), но в силу известных трагических обстоятельств этого не произошло. Потому сценарий был переделан.
  • Лундгрен прошёл специальный курс по обращению с бронебойной винтовкой, фигурирующей в фильме. По словам инструктора, Дольф показал отличный результат во время обучения.
  • Во время сьёмок изпользовался полуторометровый макет здания, в котором по сюжету находятся герои Беллман и Лундгрена.
  • Первоначальное название фильма было «Алгонкин до свидания», ироническая ссылка на Отель Алгонкин в Нью-Йорке.
    -

    iTunes Meta Tags for country

    Sort Name: Silent Trigger
    XID: Apple:vendor_id:1996-32980
    contentID: 32980
    Screenwriters: Серджо Алтери
    Producers: Николас Клермон, Сильвио Мураглиа, Паскаль Борно
    Director: Рассел Малкэй
    Cast: Дольф Лундгрен, Джина Беллман, Конрад Данн, Кристофер Хейердал, Эмма Стивенс, Александрия Абер, Рейнольд Робинсон, Дэйл Хэйес, Эрин Симс, Джонатан Роберт Рондо
    Rating: 5
    Long Description: "Снайпер", суперкомандос, работающий на "Агентство" - законспирированную правительственную организацию, управляемую "Координатором". "Снайпер" начинает сомневаться, всматриваться в глаза и лица своих мишеней.
    А его "Контролер", второй член снайперской команды, несмотря на молодость, обладает жесткой хваткой и решительностью наемного убийцы. После того, как первая миссия их снайперской команды закончилась провалом и едва их не погубила, они вновь сталкиваются при выполнении задания для "Агентства", давшего им шанс вернуться в систему.
    Их мишень: автомобиль, который должен проехать по скоростному шоссе на рассвете. Им противостоят не только сомнения, призраки и беззащитная мишень. "Координатор" отдал приказ "Контролеру" уничтожить "Снайпера", если тот вновь провалит операцию.
    Description: "Снайпер" и "Контролер", суперкомандос, работающие на "Агентство" - законспирированную правительственную организацию, управляемую "Координатором".
    После того, как первая миссия их снайперской команды закончилась провалом и едва их не погубила, они вновь сталкиваются при выполнении задания для "Агентства", давшего им шанс вернуться в систему...
    Release Date: 1996-07-04T08:00:00Z
    Genre: Action & Adventure
    Artist: Russell Mulcahy
    Name: Silent Trigger

    MediaInfo 480p Release

    General
    Complete name : Silent Trigger.m4v
    Format : MPEG-4
    Codec ID : M4V
    File size : 1.58 GiB
    Duration : 1h 33mn
    Overall bit rate mode : Variable
    Overall bit rate : 2 407 Kbps
    Movie name : Silent Trigger
    Performer : Russell Mulcahy
    Director : Рассел Малкэй
    Actor : Дольф Лундгрен / Джина Беллман / Конрад Данн / Кристофер Хейердал / Эмма Стивенс / Александрия Абер / Рейнольд Робинсон / Дэйл Хэйес / Эрин Симс / Джонатан Роберт Рондо
    Screenplay by : Серджо Алтери
    Producer : Николас Клермон / Сильвио Мураглиа / Паскаль Борно
    Genre : Action & Adventure
    ContentType : Short Film
    Description : "Снайпер" и "Контролер", суперкомандос, работающие на "Агентство" - законспирированную правительственную организацию, управляемую "Координатором". / После того, как первая миссия их снайперской команды закончилась провалом и едва их не погубила, они вновь сталкиваются при выполнении задания для "Агентства", давшего им шанс вернуться в систему...
    Recorded date : UTC 1996-07-04 08:00:00
    Encoded date : UTC 2015-08-04 08:44:31
    Tagged date : UTC 2015-08-05 10:03:43
    Cover : Yes
    Rating : None
    Title/Sort : Silent Trigger
    LongDescription : "Снайпер", суперкомандос, работающий на "Агентство" - законспирированную правительственную организацию, управляемую "Координатором". "Снайпер" начинает сомневаться, всматриваться в глаза и лица своих мишеней. / А его "Контролер", второй член снайперской команды, несмотря на молодость, обладает жесткой хваткой и решительностью наемного убийцы. После того, как первая миссия их снайперской команды закончилась провалом и едва их не погубила, они вновь сталкиваются при выполнении задания для "Агентства", давшего им шанс вернуться в систему. / Их мишень: автомобиль, который должен проехать по скоростному шоссе на рассвете. Им противостоят не только сомнения, призраки и беззащитная мишень. "Координатор" отдал приказ "Контролеру" уничтожить "Снайпера", если тот вновь провалит операцию.
    AppleStoreCatalogID : 32980
    Vendor : Apple:vendor_id:1996-32980
    ContentRating : mpaa|R|400|
    Video #1
    ID : 1
    Format : AVC
    Format/Info : Advanced Video Codec
    Format profile : Baseline@L3
    Format settings, CABAC : No
    Format settings, ReFrames : 2 frames
    Format settings, GOP : N=1
    Codec ID : avc1
    Codec ID/Info : Advanced Video Coding
    Duration : 1h 33mn
    Bit rate : 1 800 Kbps
    Width : 640 pixels
    Height : 364 pixels
    Display aspect ratio : 2.35:1
    Original display aspect ratio : 2.35:1
    Frame rate mode : Variable
    Frame rate : 23.976 fps
    Minimum frame rate : 23.974 fps
    Maximum frame rate : 23.981 fps
    Color space : YUV
    Chroma subsampling : 4:2:0
    Bit depth : 8 bits
    Scan type : Progressive
    Bits/(Pixel*Frame) : 0.322
    Stream size : 1.18 GiB (75%)
    Title : Main Program
    Writing library : x264 core 130 r2273 b3065e6
    Encoding settings : cabac=0 / ref=2 / deblock=1:0:0 / analyse=0x1:0x111 / me=umh / subme=6 / psy=1 / psy_rd=1.00:0.00 / mixed_ref=1 / me_range=16 / chroma_me=1 / trellis=0 / 8x8dct=0 / cqm=0 / deadzone=21,11 / fast_pskip=1 / chroma_qp_offset=-2 / threads=18 / lookahead_threads=2 / sliced_threads=0 / nr=0 / decimate=1 / interlaced=0 / bluray_compat=0 / constrained_intra=0 / bframes=0 / weightp=0 / keyint=240 / keyint_min=24 / scenecut=40 / intra_refresh=0 / rc_lookahead=40 / rc=2pass / mbtree=1 / bitrate=1800 / ratetol=1.0 / qcomp=0.60 / qpmin=0 / qpmax=69 / qpstep=4 / cplxblur=20.0 / qblur=0.5 / vbv_maxrate=5000 / vbv_bufsize=5000 / nal_hrd=none / ip_ratio=1.40 / aq=1:1.00
    Language : English
    Encoded date : UTC 2015-08-04 08:44:31
    Tagged date : UTC 2015-08-04 08:44:35
    Color range : Limited
    Color primaries : BT.709
    Transfer characteristics : BT.709
    Matrix coefficients : BT.709
    Video #2
    ID : 11
    Format : JPEG
    Codec ID : jpeg
    Duration : 1h 33mn
    Bit rate mode : Variable
    Bit rate : 404 bps
    Width : 640 pixels
    Height : 273 pixels
    Display aspect ratio : 2.35:1
    Frame rate mode : Variable
    Frame rate : 0.002 fps
    Minimum frame rate : 0.001 fps
    Maximum frame rate : 0.099 fps
    Color space : YUV
    Chroma subsampling : 4:2:0
    Bit depth : 8 bits
    Compression mode : Lossy
    Bits/(Pixel*Frame) : 1.156
    Stream size : 222 KiB (0%)
    Title : Chapter Images
    Language : English
    Encoded date : UTC 2015-08-05 10:03:10
    Tagged date : UTC 2015-08-05 10:03:10
    Audio #1
    ID : 2
    Format : AAC
    Format/Info : Advanced Audio Codec
    Format profile : LC
    Codec ID : 40
    Duration : 1h 33mn
    Bit rate mode : Variable
    Bit rate : 106 Kbps
    Maximum bit rate : 118 Kbps
    Channel(s) : 2 channels
    Channel positions : Front: L R
    Sampling rate : 48.0 KHz
    Compression mode : Lossy
    Stream size : 70.9 MiB (4%)
    Title : Russian DVO Stereo
    Language : Russian
    Encoded date : UTC 2015-08-04 08:44:31
    Tagged date : UTC 2015-08-04 08:44:39
    Audio #2
    ID : 3
    Format : AAC
    Format/Info : Advanced Audio Codec
    Format profile : LC
    Codec ID : 40
    Duration : 1h 33mn
    Bit rate mode : Variable
    Bit rate : 96.0 Kbps
    Maximum bit rate : 191 Kbps
    Channel(s) : 2 channels
    Channel positions : Front: L R
    Sampling rate : 48.0 KHz
    Compression mode : Lossy
    Stream size : 65.3 MiB (4%)
    Title : Russian DVO PTP Stereo
    Language : Russian
    Encoded date : UTC 2015-08-04 08:44:31
    Tagged date : UTC 2015-08-04 08:44:39
    Audio #3
    ID : 4
    Format : AAC
    Format/Info : Advanced Audio Codec
    Format profile : LC
    Codec ID : 40
    Duration : 1h 33mn
    Bit rate mode : Variable
    Bit rate : 132 Kbps
    Maximum bit rate : 230 Kbps
    Channel(s) : 2 channels
    Channel positions : Front: L R
    Sampling rate : 48.0 KHz
    Compression mode : Lossy
    Stream size : 88.4 MiB (5%)
    Title : Russian AVO S.Vizgunov Stereo
    Language : Russian
    Encoded date : UTC 2015-08-04 08:44:31
    Tagged date : UTC 2015-08-04 08:44:39
    Audio #4
    ID : 5
    Format : AAC
    Format/Info : Advanced Audio Codec
    Format profile : LC
    Codec ID : 40
    Duration : 1h 33mn
    Bit rate mode : Variable
    Bit rate : 132 Kbps
    Maximum bit rate : 175 Kbps
    Channel(s) : 2 channels
    Channel positions : Front: L R
    Sampling rate : 48.0 KHz
    Compression mode : Lossy
    Stream size : 88.3 MiB (5%)
    Title : Russian AVO P.Kartcev Stereo
    Language : Russian
    Encoded date : UTC 2015-08-04 08:44:31
    Tagged date : UTC 2015-08-04 08:44:39
    Audio #5
    ID : 6
    Format : AAC
    Format/Info : Advanced Audio Codec
    Format profile : LC
    Codec ID : 40
    Duration : 1h 33mn
    Bit rate mode : Variable
    Bit rate : 132 Kbps
    Maximum bit rate : 232 Kbps
    Channel(s) : 2 channels
    Channel positions : Front: L R
    Sampling rate : 48.0 KHz
    Compression mode : Lossy
    Stream size : 88.4 MiB (5%)
    Title : English Stereo
    Language : English
    Encoded date : UTC 2015-08-04 08:44:31
    Tagged date : UTC 2015-08-04 08:44:39
    Text #1
    ID : 7
    Format : Timed Text
    Muxing mode : sbtl
    Codec ID : tx3g
    Duration : 1h 25mn
    Bit rate mode : Variable
    Bit rate : 41 bps
    Stream size : 25.6 KiB (0%)
    Title : Russian Subtitle
    Language : Russian
    Encoded date : UTC 2015-08-05 10:03:08
    Tagged date : UTC 2015-08-05 10:03:08
    Text #2
    ID : 8
    Format : Timed Text
    Muxing mode : sbtl
    Codec ID : tx3g
    Duration : 1h 25mn
    Bit rate mode : Variable
    Bit rate : 28 bps
    Stream size : 17.6 KiB (0%)
    Title : English Subtitle
    Language : English
    Encoded date : UTC 2015-08-05 10:03:08
    Tagged date : UTC 2015-08-05 10:03:08
    Text #3
    ID : 9
    Format : Timed Text
    Muxing mode : sbtl
    Codec ID : tx3g
    Duration : 1h 25mn
    Bit rate mode : Variable
    Bit rate : 28 bps
    Stream size : 17.6 KiB (0%)
    Title : German Subtitle
    Language : German
    Encoded date : UTC 2015-08-05 10:03:08
    Tagged date : UTC 2015-08-05 10:03:08
    Menu #1
    00:00:00.000 : 1
    00:10:55.446 : 2
    00:27:06.124 : 3
    00:38:09.495 : 4
    00:50:39.286 : 5
    01:01:01.824 : 6
    01:13:00.167 : 7
    01:30:20.623 : 8
    01:33:42.700 : 9
    Menu #2
    ID : 10
    Codec ID : text
    Duration : 1h 33mn
    Title : Chapter Titles
    Language : English
    Encoded date : UTC 2015-08-05 10:03:08
    Tagged date : UTC 2015-08-05 10:03:08
    Bit rate mode : CBR
    00:00:00.000 : 1
    00:10:55.446 : 2
    00:27:06.124 : 3
    00:38:09.495 : 4
    00:50:39.286 : 5
    01:01:01.824 : 6
    01:13:00.167 : 7
    01:30:20.623 : 8
    01:33:42.700 : 9

    MediaInfo 720p Release

    General
    Complete name : Silent Trigger (HD).m4v
    Format : MPEG-4
    Codec ID : M4V
    File size : 6.01 GiB
    Duration : 1h 33mn
    Overall bit rate mode : Variable
    Overall bit rate : 9 165 Kbps
    Movie name : Silent Trigger
    Performer : Russell Mulcahy
    Director : Рассел Малкэй
    Actor : Дольф Лундгрен / Джина Беллман / Конрад Данн / Кристофер Хейердал / Эмма Стивенс / Александрия Абер / Рейнольд Робинсон / Дэйл Хэйес / Эрин Симс / Джонатан Роберт Рондо
    Screenplay by : Серджо Алтери
    Producer : Николас Клермон / Сильвио Мураглиа / Паскаль Борно
    Genre : Action & Adventure
    ContentType : Short Film
    Description : "Снайпер" и "Контролер", суперкомандос, работающие на "Агентство" - законспирированную правительственную организацию, управляемую "Координатором". / После того, как первая миссия их снайперской команды закончилась провалом и едва их не погубила, они вновь сталкиваются при выполнении задания для "Агентства", давшего им шанс вернуться в систему...
    Recorded date : UTC 1996-07-04 08:00:00
    Encoded date : UTC 2015-08-04 08:37:11
    Tagged date : UTC 2015-08-05 10:02:26
    Cover : Yes
    Rating : None
    Title/Sort : Silent Trigger
    LongDescription : "Снайпер", суперкомандос, работающий на "Агентство" - законспирированную правительственную организацию, управляемую "Координатором". "Снайпер" начинает сомневаться, всматриваться в глаза и лица своих мишеней. / А его "Контролер", второй член снайперской команды, несмотря на молодость, обладает жесткой хваткой и решительностью наемного убийцы. После того, как первая миссия их снайперской команды закончилась провалом и едва их не погубила, они вновь сталкиваются при выполнении задания для "Агентства", давшего им шанс вернуться в систему. / Их мишень: автомобиль, который должен проехать по скоростному шоссе на рассвете. Им противостоят не только сомнения, призраки и беззащитная мишень. "Координатор" отдал приказ "Контролеру" уничтожить "Снайпера", если тот вновь провалит операцию.
    HDVideo : Yes
    AppleStoreCatalogID : 32980
    Vendor : Apple:vendor_id:1996-32980
    ContentRating : mpaa|R|400|
    Video #1
    ID : 1
    Format : AVC
    Format/Info : Advanced Video Codec
    Format profile : High@L3.1
    Format settings, CABAC : No
    Format settings, ReFrames : 3 frames
    Codec ID : avc1
    Codec ID/Info : Advanced Video Coding
    Duration : 1h 33mn
    Source duration : 1h 33mn
    Bit rate : 7 000 Kbps
    Width : 1 280 pixels
    Height : 544 pixels
    Display aspect ratio : 2.35:1
    Frame rate mode : Variable
    Frame rate : 23.976 fps
    Minimum frame rate : 23.974 fps
    Maximum frame rate : 23.981 fps
    Color space : YUV
    Chroma subsampling : 4:2:0
    Bit depth : 8 bits
    Scan type : Progressive
    Bits/(Pixel*Frame) : 0.419
    Stream size : 4.59 GiB (76%)
    Source stream size : 4.59 GiB (76%)
    Title : Main Program
    Writing library : x264 core 130 r2273 b3065e6
    Encoding settings : cabac=0 / ref=3 / deblock=1:-3:-2 / analyse=0x3:0x113 / me=umh / subme=9 / psy=1 / psy_rd=0.80:0.25 / mixed_ref=1 / me_range=32 / chroma_me=1 / trellis=0 / 8x8dct=1 / cqm=0 / deadzone=6,6 / fast_pskip=0 / chroma_qp_offset=-2 / threads=18 / lookahead_threads=1 / sliced_threads=0 / nr=0 / decimate=0 / interlaced=0 / bluray_compat=0 / constrained_intra=0 / bframes=3 / b_pyramid=0 / b_adapt=2 / b_bias=0 / direct=1 / weightb=0 / open_gop=0 / weightp=0 / keyint=240 / keyint_min=24 / scenecut=40 / intra_refresh=0 / rc_lookahead=40 / rc=2pass / mbtree=1 / bitrate=7000 / ratetol=1.0 / qcomp=0.80 / qpmin=0 / qpmax=69 / qpstep=4 / cplxblur=20.0 / qblur=0.5 / vbv_maxrate=9500 / vbv_bufsize=9500 / nal_hrd=none / ip_ratio=1.10 / aq=1:0.50
    Language : English
    Encoded date : UTC 2015-08-04 08:37:11
    Tagged date : UTC 2015-08-04 08:37:24
    Color range : Limited
    Color primaries : BT.709
    Transfer characteristics : BT.709
    Matrix coefficients : BT.709
    Video #2
    ID : 13
    Format : JPEG
    Codec ID : jpeg
    Duration : 1h 33mn
    Bit rate mode : Variable
    Bit rate : 446 bps
    Width : 640 pixels
    Height : 272 pixels
    Display aspect ratio : 2.35:1
    Frame rate mode : Variable
    Frame rate : 0.002 fps
    Minimum frame rate : 0.001 fps
    Maximum frame rate : 0.099 fps
    Color space : YUV
    Chroma subsampling : 4:2:0
    Bit depth : 8 bits
    Compression mode : Lossy
    Bits/(Pixel*Frame) : 1.281
    Stream size : 245 KiB (0%)
    Title : Chapter Images
    Language : English
    Encoded date : UTC 2015-08-05 10:02:06
    Tagged date : UTC 2015-08-05 10:02:06
    Audio #1
    ID : 2
    Format : AAC
    Format/Info : Advanced Audio Codec
    Format profile : LC
    Codec ID : 40
    Duration : 1h 33mn
    Bit rate mode : Variable
    Bit rate : 151 Kbps
    Maximum bit rate : 166 Kbps
    Channel(s) : 2 channels
    Channel positions : Front: L R
    Sampling rate : 48.0 KHz
    Compression mode : Lossy
    Stream size : 101 MiB (2%)
    Title : Russian DVO Stereo
    Language : Russian
    Encoded date : UTC 2015-08-04 08:37:11
    Tagged date : UTC 2015-08-04 08:37:28
    Audio #2
    ID : 3
    Format : AAC
    Format/Info : Advanced Audio Codec
    Format profile : LC
    Codec ID : 40
    Duration : 1h 33mn
    Bit rate mode : Variable
    Bit rate : 137 Kbps
    Maximum bit rate : 262 Kbps
    Channel(s) : 2 channels
    Channel positions : Front: L R
    Sampling rate : 48.0 KHz
    Compression mode : Lossy
    Stream size : 91.8 MiB (1%)
    Title : Russian DVO PTP Stereo
    Language : Russian
    Encoded date : UTC 2015-08-04 08:37:11
    Tagged date : UTC 2015-08-04 08:37:28
    Audio #3
    ID : 4
    Format : AAC
    Format/Info : Advanced Audio Codec
    Format profile : LC
    Codec ID : 40
    Duration : 1h 33mn
    Bit rate mode : Variable
    Bit rate : 197 Kbps
    Maximum bit rate : 310 Kbps
    Channel(s) : 2 channels
    Channel positions : Front: L R
    Sampling rate : 48.0 KHz
    Compression mode : Lossy
    Stream size : 133 MiB (2%)
    Title : Russian AVO S.Vizgunov Stereo
    Language : Russian
    Encoded date : UTC 2015-08-04 08:37:11
    Tagged date : UTC 2015-08-04 08:37:28
    Audio #4
    ID : 5
    Format : AAC
    Format/Info : Advanced Audio Codec
    Format profile : LC
    Codec ID : 40
    Duration : 1h 33mn
    Bit rate mode : Variable
    Bit rate : 197 Kbps
    Maximum bit rate : 230 Kbps
    Channel(s) : 2 channels
    Channel positions : Front: L R
    Sampling rate : 48.0 KHz
    Compression mode : Lossy
    Stream size : 132 MiB (2%)
    Title : Russian AVO P.Kartcev Stereo
    Language : Russian
    Encoded date : UTC 2015-08-04 08:37:11
    Tagged date : UTC 2015-08-04 08:37:28
    Audio #5
    ID : 6
    Format : AAC
    Format/Info : Advanced Audio Codec
    Format profile : LC
    Codec ID : 40
    Duration : 1h 33mn
    Bit rate mode : Variable
    Bit rate : 198 Kbps
    Maximum bit rate : 302 Kbps
    Channel(s) : 2 channels
    Channel positions : Front: L R
    Sampling rate : 48.0 KHz
    Compression mode : Lossy
    Stream size : 133 MiB (2%)
    Title : English Stereo
    Language : English
    Encoded date : UTC 2015-08-04 08:37:11
    Tagged date : UTC 2015-08-04 08:37:28
    Audio #6
    ID : 7
    Format : AC-3
    Format/Info : Audio Coding 3
    Mode extension : CM (complete main)
    Format settings, Endianness : Big
    Codec ID : ac-3
    Duration : 1h 33mn
    Bit rate mode : Constant
    Bit rate : 640 Kbps
    Channel(s) : 6 channels
    Channel positions : Front: L C R, Side: L R, LFE
    Sampling rate : 48.0 KHz
    Bit depth : 16 bits
    Compression mode : Lossy
    Stream size : 430 MiB (7%)
    Title : Russian AVO S.Vizgunov DD 5.1
    Language : Russian
    Encoded date : UTC 2015-08-04 09:16:49
    Tagged date : UTC 2015-08-04 09:16:52
    Audio #7
    ID : 8
    Format : AC-3
    Format/Info : Audio Coding 3
    Mode extension : CM (complete main)
    Format settings, Endianness : Big
    Codec ID : ac-3
    Duration : 1h 33mn
    Bit rate mode : Constant
    Bit rate : 640 Kbps
    Channel(s) : 6 channels
    Channel positions : Front: L C R, Side: L R, LFE
    Sampling rate : 48.0 KHz
    Bit depth : 16 bits
    Compression mode : Lossy
    Stream size : 430 MiB (7%)
    Title : English DD 5.1
    Language : English
    Encoded date : UTC 2015-08-04 09:17:57
    Tagged date : UTC 2015-08-04 09:17:59
    Text #1
    ID : 9
    Format : Timed Text
    Muxing mode : sbtl
    Codec ID : tx3g
    Duration : 1h 25mn
    Bit rate mode : Variable
    Bit rate : 41 bps
    Stream size : 25.6 KiB (0%)
    Title : Russian Subtitle
    Language : Russian
    Encoded date : UTC 2015-08-05 09:58:08
    Tagged date : UTC 2015-08-05 09:58:08
    Text #2
    ID : 10
    Format : Timed Text
    Muxing mode : sbtl
    Codec ID : tx3g
    Duration : 1h 25mn
    Bit rate mode : Variable
    Bit rate : 28 bps
    Stream size : 17.6 KiB (0%)
    Title : English Subtitle
    Language : English
    Encoded date : UTC 2015-08-05 09:58:08
    Tagged date : UTC 2015-08-05 09:58:08
    Text #3
    ID : 11
    Format : Timed Text
    Muxing mode : sbtl
    Codec ID : tx3g
    Duration : 1h 25mn
    Bit rate mode : Variable
    Bit rate : 28 bps
    Stream size : 17.6 KiB (0%)
    Title : German Subtitle
    Language : German
    Encoded date : UTC 2015-08-05 09:58:08
    Tagged date : UTC 2015-08-05 09:58:08
    Menu #1
    00:00:00.000 : 1
    00:10:55.446 : 2
    00:27:06.124 : 3
    00:38:09.495 : 4
    00:50:39.286 : 5
    01:01:01.824 : 6
    01:13:00.167 : 7
    01:30:20.623 : 8
    01:33:42.700 : 9
    Menu #2
    ID : 12
    Codec ID : text
    Duration : 1h 33mn
    Title : Chapter Titles
    Language : English
    Encoded date : UTC 2015-08-05 10:02:02
    Tagged date : UTC 2015-08-05 10:02:02
    Bit rate mode : CBR
    00:00:00.000 : 1
    00:10:55.446 : 2
    00:27:06.124 : 3
    00:38:09.495 : 4
    00:50:39.286 : 5
    01:01:01.824 : 6
    01:13:00.167 : 7
    01:30:20.623 : 8
    01:33:42.700 : 9

    x264 лог 480p Release

    HandBrakeCLI -i "/Silent.Trigger.1996.BDRemux.HDCLUB/BDMV/STREAM/00000.m2ts" -t 1 -o Silent.Trigger.480p.eng.m4v -f mp4 -I -O -w 640 -l 364 --crop 132:132:0:0 --custom-anamorphic --modulus 4 --pixel-aspect 852:640 -e x264 -b 1800 -2 -a none -x cabac=0:ref=2:me=umh:bframes=0:weightp=0:subq=6:8x8dct=0:trellis=0:vbv-maxrate=5000:vbv-bufsize=5000 --verbose=1
    x264 [info]: frame I:3707  Avg QP:18.73  size: 28423  PSNR Mean Y:44.48 U:47.23 V:49.30 Avg:45.32 Global:44.73
    x264 [info]: frame P:131346 Avg QP:20.29  size:  8845  PSNR Mean Y:42.65 U:46.92 V:49.20 Avg:43.51 Global:43.12
    x264 [info]: mb I  I16..4: 17.9%  0.0% 82.1%
    x264 [info]: mb P  I16..4:  0.8%  0.0%  4.0%  P16..4: 49.4% 25.2% 10.3%  0.0%  0.0%    skip:10.4%
    x264 [info]: coded y,uvDC,uvAC intra: 87.5% 90.4% 76.0% inter: 37.2% 40.8% 11.7%
    x264 [info]: i16 v,h,dc,p: 35% 12% 12% 41%
    x264 [info]: i4 v,h,dc,ddl,ddr,vr,hd,vl,hu: 26% 12% 18%  7%  8%  9%  6%  8%  5%
    x264 [info]: i8c dc,h,v,p: 51% 14% 25% 11%
    x264 [info]: ref P L0: 68.9% 31.1%
    x264 [info]: SSIM Mean Y:0.9692402 (15.120db)
    x264 [info]: PSNR Mean Y:42.700 U:46.925 V:49.203 Avg:43.564 Global:43.162 kb/s:1799.56

    x264 лог 720p Release

    HandBrakeCLI -i /Silent.Trigger.1996.BDRemux.HDCLUB/BDMV/STREAM/00000.m2ts -t 1 -o Silent.Trigger.720p.eng.m4v -f mp4 -4 -O -w 1280 -l 544 --crop 132:132:0:0 --modulus 16 -e x264 -b 7000 -2 -a none -x cabac=0:ref=3:me=umh:b-pyramid=none:b-adapt=2:weightb=0:trellis=0:weightp=0:vbv-maxrate=9500:vbv-bufsize=9500:subq=9:merange=32:deblock=-3,-2:qcomp=0.80:qpmin=0:qpmax=69:fast_pskip=0:aq-strength=0.5:no-dct-decimate=1:psy-rd=0.80,0.25:ipratio=1.1:pbratio=1.1:deadzone-inter=6:deadzone-intra=6 --verbose=1
    x264 [info]: frame I:1529  Avg QP:20.86  size: 76388  PSNR Mean Y:43.88 U:47.23 V:49.36 Avg:44.79 Global:44.45
    x264 [info]: frame P:42432 Avg QP:21.78  size: 53959  PSNR Mean Y:43.15 U:47.52 V:50.14 Avg:44.10 Global:43.64
    x264 [info]: frame B:91092 Avg QP:22.85  size: 27666  PSNR Mean Y:41.95 U:46.82 V:50.10 Avg:42.98 Global:42.52
    x264 [info]: consecutive B-frames:  2.7% 11.2% 32.7% 53.4%
    x264 [info]: mb I  I16..4:  7.0% 72.8% 20.2%
    x264 [info]: mb P  I16..4:  1.6% 18.2%  2.9%  P16..4: 40.0% 23.5%  9.2%  0.0%  0.0%    skip: 4.6%
    x264 [info]: mb B  I16..4:  0.1%  3.5%  0.5%  B16..8: 32.8% 12.3%  2.1%  direct:12.6%  skip:36.1%  L0:35.8% L1:33.5% BI:30.7%
    x264 [info]: 8x8 transform intra:80.4% inter:44.7%
    x264 [info]: coded y,uvDC,uvAC intra: 94.2% 86.3% 62.7% inter: 53.7% 33.9% 12.6%
    x264 [info]: i16 v,h,dc,p: 39% 13% 11% 37%
    x264 [info]: i8 v,h,dc,ddl,ddr,vr,hd,vl,hu:  8%  7%  7% 11% 16% 15% 14% 11% 10%
    x264 [info]: i4 v,h,dc,ddl,ddr,vr,hd,vl,hu:  8%  7%  3% 12% 19% 16% 15% 11%  9%
    x264 [info]: i8c dc,h,v,p: 52% 16% 20% 12%
    x264 [info]: ref P L0: 61.1% 23.9% 15.0%
    x264 [info]: ref B L0: 74.0% 26.0%
    x264 [info]: SSIM Mean Y:0.9574470 (13.711db)
    x264 [info]: PSNR Mean Y:42.346 U:47.046 V:50.107 Avg:43.353 Global:42.864 kb/s:6996.87

    Скриншоты 480p Release

    Скриншоты 720p Release

    Цитата:
    Цитата:

    • Дорожка №3 получена путем наложения чистого голоса на центр оригинального DTS-HD MA.
    • За запись перевода РТР большое спасибо team_6strun.
    • Сохранены оригинальные главы как на Blu-ray.
    • За обложку отдельное спасибо Ивану.
    -

    Релиз подготовлен для просмотра на Apple TV, iPad, iPhone, iPod Touch.
    Для просмотра данного релиза на компьютере с ОС Windows рекомендуется использовать VLC media player
    Скачать .torrent

    Скачать торрент-файл бесплатно и на максимальной скорости!

    Как скачивать? · Что такое торрент? · Рейтинг и ограничения

    !ВНИМАНИЕ!
    Сайт не распространяет и не хранит электронные версии произведений, а занимается лишь лишь предоставлением доступа к создаваемому пользователями каталогу ссылок на торрент-файлы, которые содержат только списки хеш-сумм, убедительная просьба с жалобами обращаться напрямую к пользователю. Файлы для обмена на трекере предоставлены пользователями сайта, и администрация не несёт ответственности за их содержание. Просьба не заливать файлы, защищенные авторскими правами, а также файлы нелегального содержания!


  • _________________
    [Профиль] [ЛС]
    Показать сообщения:    
    Ответить на тему

    Текущее время: Сегодня, в 06:27

    Часовой пояс: GMT + 2



    Вы не можете начинать темы
    Вы не можете отвечать на сообщения
    Вы не можете редактировать свои сообщения
    Вы не можете удалять свои сообщения
    Вы не можете голосовать в опросах
    Вы не можете прикреплять файлы к сообщениям
    Вы не можете скачивать файлы