BitTorrentTracker PerecTracker.org
BitTorrentTracker PerecTracker.org
    
Регистрация  ·  Вход
 
 · 
Забыли пароль?

  • Три плюс два (Генрих Оганисян) [1963, СССР, комедия, BDRip HD (720p), SD (480p)] Original [Версия 16x9]

    Ответить на тему
     
    Автор Сообщение

    rechyn

    Создавать темы 22-Авг-2015 12:17

           

    [Цитировать]

    Три плюс два
    7.984 / 10
    -Год выпуска: 1963
    Страна: СССР
    Жанр: комедия
    Продолжительность: 99 мин.
    Перевод: Не требуется
    Оригинальная аудиодорожка: Есть
    Cубтитры: Нет
    Режиссёр: Генрих Оганисян
    Сценарий: Сергей Михалков
    Оператор: Вячеслав Шумский
    Композитор: Андрей Волконский
    Художник: К. Николаевич, Н. Панова, А. Бауманис
    Монтаж: Эрика Мешковская, Р. Шор
    В ролях: Наталья Кустинская, Наталья Фатеева, Андрей Миронов, Евгений Жариков, Геннадий Нилов, Бэзил Рэтбоун
    Мировая премьера: 3 июля 1963
    Релиз на DVD: 2 апреля 2009, Азимут
    Описание: Трое друзей из Москвы живут "дикарями" в замечательном месте с песчаным пляжем, пресной водой, тенью и дровами у самого моря. Отдыхают.
    Внезапно приезжают две незнакомки и заявляют, что это их старое место. Более того, они доказывают свое первенство, выкопав бутылку с письмом. Но уезжать ребята отказываются. Дамы же от своего места отказываться тоже не собираются и ставят палатку.
    Начинается тихая война, перерастающая со временем в любовь. Один из тех фильмов, которые можно пересматривать не один раз.-Качество исходника: Blu-Ray 1080p (HDClub)
    Качество: BDRip
    Тип: 480p 720p
    Контейнер: m4v
    Видео: 640x352 анаморф 852x352 at 23.976 fps, MPEG-4 AVC, ~1800 kbps avg
    Видео: 1280x528 at 23.976 fps, MPEG-4 AVC, ~7000 kbps avg
    Аудио#1: Russian: 48 kHz, ААС, 1/0 (C), ~192.00 kbps avg
    Аудио#2: Russian: 48 kHz, ААС, 2/0 (L,R), ~128.00 / 192.00 kbps avg
    Аудио#3: Russian: 48 kHz, AC3, 3/2 (L,C,R,l,r) + LFE ch, ~448 kbps avg-

    Знаете ли Вы, что...
  • Камео режиссера фильма Генриха Оганесяна — это эпизодическая роль официанта, который прислуживает за столом в ресторане, где обедают Наташа и Вадим.
  • На 20-й минуте фильма диктор радио говорит: «Сегодня исполняется 85 лет со дня смерти великого поэта-демократа Николая Алексеевича Некрасова…». Таким образом год 1962=1877+85 соответствует году фильма, однако Н. А. Некрасов умер 27 декабря 1877 (8 января 1878), а действие фильма происходит летом.
  • Место съемок — поселок Новый Свет Крымской области УССР.
  • Фильм снимался в двух вариантах — широкоэкранном и обычном, поэтому каждую сцену снимали по два раза.
    -

    iTunes MetaTags

    Sort Name: Три плюс два
    XID: Apple:vendor_id:1963-46792-16x9
    contentID: 46792169
    Screenwriters: Сергей Михалков
    Director: Генрих Оганисян
    Cast: Наталья Кустинская, Наталья Фатеева, Андрей Миронов, Евгений Жариков, Геннадий Нилов, Бэзил Рэтбоун
    Studio: Киностудия им. М.Горького
    Rating: 132
    Long Description: Трое друзей из Москвы живут "дикарями" в замечательном месте с песчаным пляжем, пресной водой, тенью и дровами у самого моря. Отдыхают.
    Внезапно приезжают две незнакомки и заявляют, что это их старое место. Более того, они доказывают свое первенство, выкопав бутылку с письмом. Но уезжать ребята отказываются. Дамы же от своего места отказываться тоже не собираются и ставят палатку.
    Начинается тихая война, перерастающая со временем в любовь. Один из тех фильмов, которые можно пересматривать не один раз.
    Description: Трое друзей из Москвы живут "дикарями" в замечательном месте с песчаным пляжем, пресной водой, тенью и дровами у самого моря. Отдыхают. Внезапно приезжают две незнакомки и заявляют, что это их старое место. Но уезжать ребята отказываются...
    Release Date: 1963-07-03T08:00:00Z
    Genre: Comedy
    Artist: Генрих Оганисян
    Name: Три плюс два [16x9]

    MediaInfo 480p Release

    General
    Complete name : Три плюс два [16x9].m4v
    Format : MPEG-4
    Codec ID : M4V
    File size : 1.48 GiB
    Duration : 1h 39mn
    Overall bit rate mode : Variable
    Overall bit rate : 2 134 Kbps
    Movie name : Три плюс два [16x9]
    Performer : Генрих Оганисян
    Director : Генрих Оганисян
    Actor : Наталья Кустинская / Наталья Фатеева / Андрей Миронов / Евгений Жариков / Геннадий Нилов / Бэзил Рэтбоун
    Screenplay by : Сергей Михалков
    Production studio : Киностудия им. М.Горького
    Genre : Comedy
    ContentType : Short Film
    Description : Трое друзей из Москвы живут "дикарями" в замечательном месте с песчаным пляжем, пресной водой, тенью и дровами у самого моря. Отдыхают. Внезапно приезжают две незнакомки и заявляют, что это их старое место. Но уезжать ребята отказываются...
    Recorded date : UTC 1963-07-03 08:00:00
    Encoded date : UTC 2015-08-03 09:23:04
    Tagged date : UTC 2015-08-03 09:24:38
    Cover : Yes
    Rating : None
    Title/Sort : Три плюс два
    LongDescription : Трое друзей из Москвы живут "дикарями" в замечательном месте с песчаным пляжем, пресной водой, тенью и дровами у самого моря. Отдыхают. / Внезапно приезжают две незнакомки и заявляют, что это их старое место. Более того, они доказывают свое первенство, выкопав бутылку с письмом. Но уезжать ребята отказываются. Дамы же от своего места отказываться тоже не собираются и ставят палатку. / Начинается тихая война, перерастающая со временем в любовь. Один из тех фильмов, которые можно пересматривать не один раз.
    AppleStoreCatalogID : 46792169
    Vendor : Apple:vendor_id:1963-46792-16x9
    ContentRating : ru-movie|0+|000|
    Video #1
    ID : 1
    Format : AVC
    Format/Info : Advanced Video Codec
    Format profile : Baseline@L3
    Format settings, CABAC : No
    Format settings, ReFrames : 2 frames
    Codec ID : avc1
    Codec ID/Info : Advanced Video Coding
    Duration : 1h 39mn
    Bit rate : 1 800 Kbps
    Width : 640 pixels
    Height : 352 pixels
    Display aspect ratio : 2.40:1
    Frame rate mode : Variable
    Frame rate : 23.976 fps
    Minimum frame rate : 23.810 fps
    Maximum frame rate : 24.390 fps
    Color space : YUV
    Chroma subsampling : 4:2:0
    Bit depth : 8 bits
    Scan type : Progressive
    Bits/(Pixel*Frame) : 0.333
    Stream size : 1.25 GiB (84%)
    Title : Main Program
    Writing library : x264 core 130 r2273 b3065e6
    Encoding settings : cabac=0 / ref=2 / deblock=1:0:0 / analyse=0x1:0x111 / me=umh / subme=6 / psy=1 / psy_rd=1.00:0.00 / mixed_ref=1 / me_range=16 / chroma_me=1 / trellis=0 / 8x8dct=0 / cqm=0 / deadzone=21,11 / fast_pskip=1 / chroma_qp_offset=-2 / threads=18 / lookahead_threads=2 / sliced_threads=0 / nr=0 / decimate=1 / interlaced=0 / bluray_compat=0 / constrained_intra=0 / bframes=0 / weightp=0 / keyint=240 / keyint_min=24 / scenecut=40 / intra_refresh=0 / rc_lookahead=40 / rc=2pass / mbtree=1 / bitrate=1800 / ratetol=1.0 / qcomp=0.60 / qpmin=0 / qpmax=69 / qpstep=4 / cplxblur=20.0 / qblur=0.5 / vbv_maxrate=5000 / vbv_bufsize=5000 / nal_hrd=none / ip_ratio=1.40 / aq=1:1.00
    Language : Russian
    Encoded date : UTC 2015-08-03 09:23:04
    Tagged date : UTC 2015-08-03 09:23:24
    Color range : Limited
    Color primaries : BT.709
    Transfer characteristics : BT.709
    Matrix coefficients : BT.709
    Video #2
    ID : 5
    Format : JPEG
    Codec ID : jpeg
    Duration : 1h 39mn
    Bit rate mode : Variable
    Bit rate : 772 bps
    Width : 640 pixels
    Height : 264 pixels
    Display aspect ratio : 2.40:1
    Frame rate mode : Variable
    Frame rate : 0.002 fps
    Minimum frame rate : 0.002 fps
    Maximum frame rate : 0.005 fps
    Color space : YUV
    Chroma subsampling : 4:2:0
    Bit depth : 8 bits
    Compression mode : Lossy
    Bits/(Pixel*Frame) : 2.285
    Stream size : 659 KiB (0%)
    Title : Chapter Images
    Language : Russian
    Encoded date : UTC 2015-08-03 09:23:26
    Tagged date : UTC 2015-08-03 09:23:26
    Audio #1
    ID : 2
    Format : AAC
    Format/Info : Advanced Audio Codec
    Format profile : LC
    Codec ID : 40
    Duration : 1h 39mn
    Bit rate mode : Variable
    Bit rate : 197 Kbps
    Maximum bit rate : 250 Kbps
    Channel(s) : 2 channels
    Channel(s)_Original : 1 channel
    Channel positions : Front: C
    Sampling rate : 48.0 KHz
    Compression mode : Lossy
    Stream size : 140 MiB (9%)
    Title : Russian Mono
    Language : Russian
    Encoded date : UTC 2015-08-03 09:23:04
    Tagged date : UTC 2015-08-03 09:23:10
    Audio #2
    ID : 3
    Format : AAC
    Format/Info : Advanced Audio Codec
    Format profile : LC
    Codec ID : 40
    Duration : 1h 39mn
    Bit rate mode : Variable
    Bit rate : 132 Kbps
    Maximum bit rate : 213 Kbps
    Channel(s) : 2 channels
    Channel positions : Front: L R
    Sampling rate : 48.0 KHz
    Compression mode : Lossy
    Stream size : 93.9 MiB (6%)
    Title : Russian Stereo
    Language : Russian
    Encoded date : UTC 2015-08-03 09:23:04
    Tagged date : UTC 2015-08-03 09:23:09
    Menu #1
    00:00:00.000 : 1
    00:09:49.506 : 2
    00:20:27.601 : 3
    00:28:29.374 : 4
    00:35:02.684 : 5
    00:41:33.282 : 6
    00:48:43.546 : 7
    00:55:29.326 : 8
    01:01:13.795 : 9
    01:04:52.764 : 10
    01:10:00.196 : 11
    01:16:04.852 : 12
    01:26:28.683 : 13
    01:33:06.206 : 14
    Menu #2
    ID : 4
    Codec ID : text
    Duration : 1h 39mn
    Title : Chapter Titles
    Language : Russian
    Encoded date : UTC 2015-08-03 09:23:24
    Tagged date : UTC 2015-08-03 09:23:24
    00:00:00.000 : 1
    00:09:49.506 : 2
    00:20:27.601 : 3
    00:28:29.374 : 4
    00:35:02.684 : 5
    00:41:33.282 : 6
    00:48:43.546 : 7
    00:55:29.326 : 8
    01:01:13.795 : 9
    01:04:52.764 : 10
    01:10:00.196 : 11
    01:16:04.852 : 12
    01:26:28.683 : 13
    01:33:06.206 : 14
    Bit rate mode : VBR

    MediaInfo 720p Release

    General
    Complete name : Три плюс два [16x9] (HD).m4v
    Format : MPEG-4
    Codec ID : M4V
    File size : 5.43 GiB
    Duration : 1h 39mn
    Overall bit rate mode : Variable
    Overall bit rate : 7 824 Kbps
    Movie name : Три плюс два [16x9]
    Performer : Генрих Оганисян
    Director : Генрих Оганисян
    Actor : Наталья Кустинская / Наталья Фатеева / Андрей Миронов / Евгений Жариков / Геннадий Нилов / Бэзил Рэтбоун
    Screenplay by : Сергей Михалков
    Production studio : Киностудия им. М.Горького
    Genre : Comedy
    ContentType : Short Film
    Description : Трое друзей из Москвы живут "дикарями" в замечательном месте с песчаным пляжем, пресной водой, тенью и дровами у самого моря. Отдыхают. Внезапно приезжают две незнакомки и заявляют, что это их старое место. Но уезжать ребята отказываются...
    Recorded date : UTC 1963-07-03 08:00:00
    Encoded date : UTC 2015-08-03 09:19:44
    Tagged date : UTC 2015-08-03 09:20:49
    Cover : Yes
    Rating : None
    Title/Sort : Три плюс два
    LongDescription : Трое друзей из Москвы живут "дикарями" в замечательном месте с песчаным пляжем, пресной водой, тенью и дровами у самого моря. Отдыхают. / Внезапно приезжают две незнакомки и заявляют, что это их старое место. Более того, они доказывают свое первенство, выкопав бутылку с письмом. Но уезжать ребята отказываются. Дамы же от своего места отказываться тоже не собираются и ставят палатку. / Начинается тихая война, перерастающая со временем в любовь. Один из тех фильмов, которые можно пересматривать не один раз.
    HDVideo : Yes
    AppleStoreCatalogID : 46792169
    Vendor : Apple:vendor_id:1963-46792-16x9
    ContentRating : ru-movie|0+|000|
    Video #1
    ID : 1
    Format : AVC
    Format/Info : Advanced Video Codec
    Format profile : High@L3.1
    Format settings, CABAC : No
    Format settings, ReFrames : 3 frames
    Codec ID : avc1
    Codec ID/Info : Advanced Video Coding
    Duration : 1h 39mn
    Source duration : 1h 39mn
    Bit rate : 7 000 Kbps
    Width : 1 280 pixels
    Height : 528 pixels
    Display aspect ratio : 2.40:1
    Frame rate mode : Variable
    Frame rate : 23.976 fps
    Minimum frame rate : 23.810 fps
    Maximum frame rate : 24.390 fps
    Color space : YUV
    Chroma subsampling : 4:2:0
    Bit depth : 8 bits
    Scan type : Progressive
    Bits/(Pixel*Frame) : 0.432
    Stream size : 4.84 GiB (89%)
    Source stream size : 4.84 GiB (89%)
    Title : Main Program
    Writing library : x264 core 130 r2273 b3065e6
    Encoding settings : cabac=0 / ref=3 / deblock=1:-3:-2 / analyse=0x3:0x113 / me=umh / subme=9 / psy=1 / psy_rd=0.80:0.25 / mixed_ref=1 / me_range=32 / chroma_me=1 / trellis=0 / 8x8dct=1 / cqm=0 / deadzone=6,6 / fast_pskip=0 / chroma_qp_offset=-2 / threads=18 / lookahead_threads=1 / sliced_threads=0 / nr=0 / decimate=0 / interlaced=0 / bluray_compat=0 / constrained_intra=0 / bframes=3 / b_pyramid=0 / b_adapt=2 / b_bias=0 / direct=1 / weightb=0 / open_gop=0 / weightp=0 / keyint=240 / keyint_min=24 / scenecut=40 / intra_refresh=0 / rc_lookahead=40 / rc=2pass / mbtree=1 / bitrate=7000 / ratetol=1.0 / qcomp=0.80 / qpmin=0 / qpmax=69 / qpstep=4 / cplxblur=20.0 / qblur=0.5 / vbv_maxrate=9500 / vbv_bufsize=9500 / nal_hrd=none / ip_ratio=1.10 / aq=1:0.50
    Language : Russian
    Encoded date : UTC 2015-08-03 09:19:44
    Tagged date : UTC 2015-08-03 09:20:10
    Color range : Limited
    Color primaries : BT.709
    Transfer characteristics : BT.709
    Matrix coefficients : BT.709
    Video #2
    ID : 6
    Format : JPEG
    Codec ID : jpeg
    Duration : 1h 39mn
    Bit rate mode : Variable
    Bit rate : 842 bps
    Width : 640 pixels
    Height : 264 pixels
    Display aspect ratio : 2.40:1
    Frame rate mode : Variable
    Frame rate : 0.002 fps
    Minimum frame rate : 0.002 fps
    Maximum frame rate : 0.005 fps
    Color space : YUV
    Chroma subsampling : 4:2:0
    Bit depth : 8 bits
    Compression mode : Lossy
    Bits/(Pixel*Frame) : 2.492
    Stream size : 720 KiB (0%)
    Title : Chapter Images
    Language : Russian
    Encoded date : UTC 2015-08-03 09:20:14
    Tagged date : UTC 2015-08-03 09:20:14
    Audio #1
    ID : 2
    Format : AAC
    Format/Info : Advanced Audio Codec
    Format profile : LC
    Codec ID : 40
    Duration : 1h 39mn
    Bit rate mode : Variable
    Bit rate : 197 Kbps
    Maximum bit rate : 250 Kbps
    Channel(s) : 2 channels
    Channel(s)_Original : 1 channel
    Channel positions : Front: C
    Sampling rate : 48.0 KHz
    Compression mode : Lossy
    Stream size : 140 MiB (3%)
    Title : Russian Mono
    Language : Russian
    Encoded date : UTC 2015-08-03 09:19:44
    Tagged date : UTC 2015-08-03 09:19:59
    Audio #2
    ID : 3
    Format : AAC
    Format/Info : Advanced Audio Codec
    Format profile : LC
    Codec ID : 40
    Duration : 1h 39mn
    Bit rate mode : Variable
    Bit rate : 197 Kbps
    Maximum bit rate : 304 Kbps
    Channel(s) : 2 channels
    Channel positions : Front: L R
    Sampling rate : 48.0 KHz
    Compression mode : Lossy
    Stream size : 140 MiB (3%)
    Title : Russian Stereo
    Language : Russian
    Encoded date : UTC 2015-08-03 09:19:44
    Tagged date : UTC 2015-08-03 09:19:59
    Audio #3
    ID : 4
    Format : AC-3
    Format/Info : Audio Coding 3
    Mode extension : CM (complete main)
    Format settings, Endianness : Big
    Codec ID : ac-3
    Duration : 1h 39mn
    Bit rate mode : Constant
    Bit rate : 448 Kbps
    Channel(s) : 6 channels
    Channel positions : Front: L C R, Side: L R, LFE
    Sampling rate : 48.0 KHz
    Bit depth : 16 bits
    Compression mode : Lossy
    Stream size : 318 MiB (6%)
    Title : Russian DD 5.1
    Language : Russian
    Encoded date : UTC 2015-08-03 09:19:44
    Tagged date : UTC 2015-08-03 09:19:49
    Menu #1
    00:00:00.000 : 1
    00:09:49.506 : 2
    00:20:27.601 : 3
    00:28:29.374 : 4
    00:35:02.684 : 5
    00:41:33.282 : 6
    00:48:43.546 : 7
    00:55:29.326 : 8
    01:01:13.795 : 9
    01:04:52.764 : 10
    01:10:00.196 : 11
    01:16:04.852 : 12
    01:26:28.683 : 13
    01:33:06.206 : 14
    Menu #2
    ID : 5
    Codec ID : text
    Duration : 1h 39mn
    Title : Chapter Titles
    Language : Russian
    Encoded date : UTC 2015-08-03 09:20:10
    Tagged date : UTC 2015-08-03 09:20:10
    00:00:00.000 : 1
    00:09:49.506 : 2
    00:20:27.601 : 3
    00:28:29.374 : 4
    00:35:02.684 : 5
    00:41:33.282 : 6
    00:48:43.546 : 7
    00:55:29.326 : 8
    01:01:13.795 : 9
    01:04:52.764 : 10
    01:10:00.196 : 11
    01:16:04.852 : 12
    01:26:28.683 : 13
    01:33:06.206 : 14
    Bit rate mode : VBR

    x264 лог 480p Release

    HandBrakeCLI -i "Tri.plus.dva.16.9.rus.mkv" -t 1 -o Tri.plus.dva.16.9.480p.rus.m4v -f mp4 -I -O -w 640 -l 352 --crop 144:144:0:0 --custom-anamorphic --modulus 16 --pixel-aspect 852:640 -e x264 -b 1800 -2 -a none -x cabac=0:ref=2:me=umh:bframes=0:weightp=0:subq=6:8x8dct=0:trellis=0:vbv-maxrate=5000:vbv-bufsize=5000 --verbose=1
    x264 [info]: frame I:1398  Avg QP:18.75  size: 39962  PSNR Mean Y:44.17 U:50.12 V:49.91 Avg:45.35 Global:44.56
    x264 [info]: frame P:141550 Avg QP:21.18  size:  9059  PSNR Mean Y:41.14 U:46.33 V:46.19 Avg:42.26 Global:41.75
    x264 [info]: mb I  I16..4: 12.9%  0.0% 87.1%
    x264 [info]: mb P  I16..4:  0.1%  0.0%  2.3%  P16..4: 47.6% 22.7% 11.9%  0.0%  0.0%    skip:15.4%
    x264 [info]: coded y,uvDC,uvAC intra: 92.4% 74.7% 48.3% inter: 39.9% 19.0% 3.6%
    x264 [info]: i16 v,h,dc,p: 21% 14% 18% 47%
    x264 [info]: i4 v,h,dc,ddl,ddr,vr,hd,vl,hu: 18% 17% 13%  7%  9%  9% 10%  8%  8%
    x264 [info]: i8c dc,h,v,p: 53% 19% 20%  7%
    x264 [info]: ref P L0: 78.2% 21.8%
    x264 [info]: SSIM Mean Y:0.9782904 (16.633db)
    x264 [info]: PSNR Mean Y:41.174 U:46.369 V:46.223 Avg:42.290 Global:41.767 kb/s:1795.54

    x264 лог 720p Release

    HandBrakeCLI -i /Tri.plus.dva.16.9.rus.mkv -t 1 -o Tri.plus.dva.16.9.720p.rus.m4v -f mp4 -4 -O -w 1280 -l 528 --crop 144:144:0:0 --modulus 16 -e x264 -b 7000 -2 -a none -x cabac=0:ref=3:me=umh:b-pyramid=none:b-adapt=2:weightb=0:trellis=0:weightp=0:vbv-maxrate=9500:vbv-bufsize=9500:subq=9:merange=32:deblock=-3,-2:qcomp=0.80:qpmin=0:qpmax=69:fast_pskip=0:aq-strength=0.5:no-dct-decimate=1:psy-rd=0.80,0.25:ipratio=1.1:pbratio=1.1:deadzone-inter=6:deadzone-intra=6 --verbose=1
    x264 [info]: frame I:996   Avg QP:18.92  size:118974  PSNR Mean Y:45.12 U:50.21 V:49.84 Avg:46.20 Global:45.80
    x264 [info]: frame P:54109 Avg QP:20.10  size: 65407  PSNR Mean Y:43.90 U:48.75 V:48.39 Avg:44.95 Global:44.58
    x264 [info]: frame B:87843 Avg QP:22.02  size: 17491  PSNR Mean Y:42.73 U:48.91 V:48.53 Avg:43.95 Global:43.53
    x264 [info]: consecutive B-frames:  2.2% 27.0% 62.3%  8.6%
    x264 [info]: mb I  I16..4:  1.8% 67.1% 31.1%
    x264 [info]: mb P  I16..4:  0.2%  9.6%  3.1%  P16..4: 41.2% 31.4% 14.2%  0.0%  0.0%    skip: 0.3%
    x264 [info]: mb B  I16..4:  0.0%  1.2%  0.6%  B16..8: 26.6% 13.0%  3.0%  direct: 6.4%  skip:49.2%  L0:26.6% L1:37.4% BI:36.0%
    x264 [info]: 8x8 transform intra:72.0% inter:41.5%
    x264 [info]: coded y,uvDC,uvAC intra: 98.7% 67.4% 34.8% inter: 51.1% 19.3% 8.3%
    x264 [info]: i16 v,h,dc,p: 13%  9%  9% 69%
    x264 [info]: i8 v,h,dc,ddl,ddr,vr,hd,vl,hu:  7% 14%  8%  9% 14% 11% 15%  9% 13%
    x264 [info]: i4 v,h,dc,ddl,ddr,vr,hd,vl,hu:  7% 16%  3%  9% 15% 12% 17%  9% 13%
    x264 [info]: i8c dc,h,v,p: 50% 23% 18% 10%
    x264 [info]: ref P L0: 81.4% 11.7%  6.9%
    x264 [info]: ref B L0: 89.3% 10.7%
    x264 [info]: SSIM Mean Y:0.9773741 (16.454db)
    x264 [info]: PSNR Mean Y:43.188 U:48.860 V:48.484 Avg:44.347 Global:43.908 kb/s:6969.44

    Скриншоты 480p Release

    Скриншоты 720p Release

    Цитата:
    Цитата:

    • За обложку спасибо Ивану.
    -

    Релиз подготовлен для просмотра на Apple TV, iPad, iPhone, iPod Touch.
    Для просмотра данного релиза на компьютере с ОС Windows рекомендуется использовать VLC media player
    Скачать .torrent

    Скачать торрент-файл бесплатно и на максимальной скорости!

    Как скачивать? · Что такое торрент? · Рейтинг и ограничения

    !ВНИМАНИЕ!
    Сайт не распространяет и не хранит электронные версии произведений, а занимается лишь лишь предоставлением доступа к создаваемому пользователями каталогу ссылок на торрент-файлы, которые содержат только списки хеш-сумм, убедительная просьба с жалобами обращаться напрямую к пользователю. Файлы для обмена на трекере предоставлены пользователями сайта, и администрация не несёт ответственности за их содержание. Просьба не заливать файлы, защищенные авторскими правами, а также файлы нелегального содержания!


  • _________________
    [Профиль] [ЛС]
    Показать сообщения:    
    Ответить на тему

    Текущее время: Сегодня, в 05:56

    Часовой пояс: GMT + 2



    Вы не можете начинать темы
    Вы не можете отвечать на сообщения
    Вы не можете редактировать свои сообщения
    Вы не можете удалять свои сообщения
    Вы не можете голосовать в опросах
    Вы не можете прикреплять файлы к сообщениям
    Вы не можете скачивать файлы