BitTorrentTracker PerecTracker.org
BitTorrentTracker PerecTracker.org
    
Регистрация  ·  Вход
 
 · 
Забыли пароль?

  • Три плюс два (Генрих Оганисян) [1963, СССР, комедия, BDRip HD (720p), SD (480p)] Original [Версия 4x3]

    Ответить на тему
     
    Автор Сообщение

    rechyn

    Создавать темы 22-Авг-2015 12:17

           

    [Цитировать]

    Три плюс два
    7.984 / 10
    -Год выпуска: 1963
    Страна: СССР
    Жанр: комедия
    Продолжительность: 87 мин.
    Перевод: Не требуется
    Оригинальная аудиодорожка: Есть
    Cубтитры: Нет
    Режиссёр: Генрих Оганисян
    Сценарий: Сергей Михалков
    Оператор: Вячеслав Шумский
    Композитор: Андрей Волконский
    Художник: К. Николаевич, Н. Панова, А. Бауманис
    Монтаж: Эрика Мешковская, Р. Шор
    В ролях: Наталья Кустинская, Наталья Фатеева, Андрей Миронов, Евгений Жариков, Геннадий Нилов, Бэзил Рэтбоун
    Мировая премьера: 3 июля 1963
    Релиз на DVD: 2 апреля 2009, Азимут
    Описание: Трое друзей из Москвы живут "дикарями" в замечательном месте с песчаным пляжем, пресной водой, тенью и дровами у самого моря. Отдыхают.
    Внезапно приезжают две незнакомки и заявляют, что это их старое место. Более того, они доказывают свое первенство, выкопав бутылку с письмом. Но уезжать ребята отказываются. Дамы же от своего места отказываться тоже не собираются и ставят палатку.
    Начинается тихая война, перерастающая со временем в любовь. Один из тех фильмов, которые можно пересматривать не один раз.-Качество исходника: Blu-Ray 1080p (HDClub)
    Качество: BDRip
    Тип: 480p 720p
    Контейнер: m4v
    Видео: 640x480 at 23.976 fps, MPEG-4 AVC, ~1800 kbps avg
    Видео: 992x720 at 23.976 fps, MPEG-4 AVC, ~7000 kbps avg
    Аудио#1: Russian: 48 kHz, ААС, 1/0 (C), ~192.00 kbps avg-

    Знаете ли Вы, что...
  • Камео режиссера фильма Генриха Оганесяна — это эпизодическая роль официанта, который прислуживает за столом в ресторане, где обедают Наташа и Вадим.
  • На 20-й минуте фильма диктор радио говорит: «Сегодня исполняется 85 лет со дня смерти великого поэта-демократа Николая Алексеевича Некрасова…». Таким образом год 1962=1877+85 соответствует году фильма, однако Н. А. Некрасов умер 27 декабря 1877 (8 января 1878), а действие фильма происходит летом.
  • Место съемок — поселок Новый Свет Крымской области УССР.
  • Фильм снимался в двух вариантах — широкоэкранном и обычном, поэтому каждую сцену снимали по два раза.
    -

    iTunes MetaTags

    Sort Name: Три плюс два
    XID: Apple:vendor_id:1963-46792-4x3
    contentID: 46792
    Screenwriters: Сергей Михалков
    Director: Генрих Оганисян
    Cast: Наталья Кустинская, Наталья Фатеева, Андрей Миронов, Евгений Жариков, Геннадий Нилов, Бэзил Рэтбоун
    Studio: Киностудия им. М.Горького
    Rating: 132
    Long Description: Трое друзей из Москвы живут "дикарями" в замечательном месте с песчаным пляжем, пресной водой, тенью и дровами у самого моря. Отдыхают.
    Внезапно приезжают две незнакомки и заявляют, что это их старое место. Более того, они доказывают свое первенство, выкопав бутылку с письмом. Но уезжать ребята отказываются. Дамы же от своего места отказываться тоже не собираются и ставят палатку.
    Начинается тихая война, перерастающая со временем в любовь. Один из тех фильмов, которые можно пересматривать не один раз.
    Description: Трое друзей из Москвы живут "дикарями" в замечательном месте с песчаным пляжем, пресной водой, тенью и дровами у самого моря. Отдыхают. Внезапно приезжают две незнакомки и заявляют, что это их старое место. Но уезжать ребята отказываются...
    Release Date: 1963-07-03T08:00:00Z
    Genre: Comedy
    Artist: Генрих Оганисян
    Name: Три плюс два [4x3]

    MediaInfo 480p Release

    General
    Complete name : Три плюс два [4x3].m4v
    Format : MPEG-4
    Codec ID : M4V
    File size : 1.23 GiB
    Duration : 1h 26mn
    Overall bit rate mode : Variable
    Overall bit rate : 2 018 Kbps
    Movie name : Три плюс два [4x3]
    Performer : Генрих Оганисян
    Director : Генрих Оганисян
    Actor : Наталья Кустинская / Наталья Фатеева / Андрей Миронов / Евгений Жариков / Геннадий Нилов / Бэзил Рэтбоун
    Screenplay by : Сергей Михалков
    Production studio : Киностудия им. М.Горького
    Genre : Comedy
    ContentType : Short Film
    Description : Трое друзей из Москвы живут "дикарями" в замечательном месте с песчаным пляжем, пресной водой, тенью и дровами у самого моря. Отдыхают. Внезапно приезжают две незнакомки и заявляют, что это их старое место. Но уезжать ребята отказываются...
    Recorded date : UTC 1963-07-03 08:00:00
    Encoded date : UTC 2015-08-03 09:14:15
    Tagged date : UTC 2015-08-03 09:19:01
    Cover : Yes
    Rating : None
    Title/Sort : Три плюс два
    LongDescription : Трое друзей из Москвы живут "дикарями" в замечательном месте с песчаным пляжем, пресной водой, тенью и дровами у самого моря. Отдыхают. / Внезапно приезжают две незнакомки и заявляют, что это их старое место. Более того, они доказывают свое первенство, выкопав бутылку с письмом. Но уезжать ребята отказываются. Дамы же от своего места отказываться тоже не собираются и ставят палатку. / Начинается тихая война, перерастающая со временем в любовь. Один из тех фильмов, которые можно пересматривать не один раз.
    AppleStoreCatalogID : 46792
    Vendor : Apple:vendor_id:1963-46792-4x3
    ContentRating : ru-movie|0+|000|
    Video #1
    ID : 1
    Format : AVC
    Format/Info : Advanced Video Codec
    Format profile : Baseline@L3
    Format settings, CABAC : No
    Format settings, ReFrames : 2 frames
    Format settings, GOP : N=1
    Codec ID : avc1
    Codec ID/Info : Advanced Video Coding
    Duration : 1h 26mn
    Bit rate : 1 800 Kbps
    Width : 640 pixels
    Height : 480 pixels
    Display aspect ratio : 4:3
    Frame rate mode : Variable
    Frame rate : 23.976 fps
    Minimum frame rate : 23.810 fps
    Maximum frame rate : 24.390 fps
    Color space : YUV
    Chroma subsampling : 4:2:0
    Bit depth : 8 bits
    Scan type : Progressive
    Bits/(Pixel*Frame) : 0.244
    Stream size : 1.09 GiB (89%)
    Title : Main Program
    Writing library : x264 core 130 r2273 b3065e6
    Encoding settings : cabac=0 / ref=2 / deblock=1:0:0 / analyse=0x1:0x111 / me=umh / subme=6 / psy=1 / psy_rd=1.00:0.00 / mixed_ref=1 / me_range=16 / chroma_me=1 / trellis=0 / 8x8dct=0 / cqm=0 / deadzone=21,11 / fast_pskip=1 / chroma_qp_offset=-2 / threads=18 / lookahead_threads=3 / sliced_threads=0 / nr=0 / decimate=1 / interlaced=0 / bluray_compat=0 / constrained_intra=0 / bframes=0 / weightp=0 / keyint=240 / keyint_min=24 / scenecut=40 / intra_refresh=0 / rc_lookahead=40 / rc=2pass / mbtree=1 / bitrate=1800 / ratetol=1.0 / qcomp=0.60 / qpmin=0 / qpmax=69 / qpstep=4 / cplxblur=20.0 / qblur=0.5 / vbv_maxrate=5000 / vbv_bufsize=5000 / nal_hrd=none / ip_ratio=1.40 / aq=1:1.00
    Language : Russian
    Encoded date : UTC 2015-08-03 09:14:15
    Tagged date : UTC 2015-08-03 09:14:30
    Color range : Limited
    Color primaries : BT.709
    Transfer characteristics : BT.709
    Matrix coefficients : BT.709
    Video #2
    ID : 4
    Format : JPEG
    Codec ID : jpeg
    Duration : 1h 26mn
    Duration_LastFrame : -3mn 8s
    Bit rate mode : Variable
    Bit rate : 1 076 bps
    Width : 640 pixels
    Height : 468 pixels
    Display aspect ratio : 4:3
    Frame rate mode : Constant
    Frame rate : 0.002 fps
    Color space : YUV
    Chroma subsampling : 4:2:0
    Bit depth : 8 bits
    Compression mode : Lossy
    Bits/(Pixel*Frame) : 1.796
    Stream size : 591 KiB (0%)
    Title : Chapter Images
    Language : Russian
    Encoded date : UTC 2015-08-03 09:14:32
    Tagged date : UTC 2015-08-03 09:14:32
    Audio
    ID : 2
    Format : AAC
    Format/Info : Advanced Audio Codec
    Format profile : LC
    Codec ID : 40
    Duration : 1h 26mn
    Bit rate mode : Variable
    Bit rate : 211 Kbps
    Maximum bit rate : 226 Kbps
    Channel(s) : 2 channels
    Channel(s)_Original : 1 channel
    Channel positions : Front: C
    Sampling rate : 48.0 KHz
    Compression mode : Lossy
    Stream size : 131 MiB (10%)
    Title : Russian Mono
    Language : Russian
    Encoded date : UTC 2015-08-03 09:14:15
    Tagged date : UTC 2015-08-03 09:14:19
    Menu #1
    00:00:00.000 : 1
    00:10:00.600 : 2
    00:20:01.200 : 3
    00:30:01.800 : 4
    00:40:02.400 : 5
    00:50:03.000 : 6
    01:00:03.600 : 7
    01:10:04.200 : 8
    01:20:04.800 : 9
    Menu #2
    ID : 3
    Codec ID : text
    Duration : 1h 26mn
    Title : Chapter Titles
    Language : Russian
    Encoded date : UTC 2015-08-03 09:14:30
    Tagged date : UTC 2015-08-03 09:14:30
    Bit rate mode : CBR
    Duration_LastFrame : -188480
    00:00:00.000 : 1
    00:10:00.600 : 2
    00:20:01.200 : 3
    00:30:01.800 : 4
    00:40:02.400 : 5
    00:50:03.000 : 6
    01:00:03.600 : 7
    01:10:04.200 : 8
    01:20:04.800 : 9

    MediaInfo 720p Release

    General
    Complete name : Три плюс два [4x3] (HD).m4v
    Format : MPEG-4
    Codec ID : M4V
    File size : 4.38 GiB
    Duration : 1h 26mn
    Overall bit rate mode : Variable
    Overall bit rate : 7 217 Kbps
    Movie name : Три плюс два [4x3]
    Performer : Генрих Оганисян
    Director : Генрих Оганисян
    Actor : Наталья Кустинская / Наталья Фатеева / Андрей Миронов / Евгений Жариков / Геннадий Нилов / Бэзил Рэтбоун
    Screenplay by : Сергей Михалков
    Production studio : Киностудия им. М.Горького
    Genre : Comedy
    ContentType : Short Film
    Description : Трое друзей из Москвы живут "дикарями" в замечательном месте с песчаным пляжем, пресной водой, тенью и дровами у самого моря. Отдыхают. Внезапно приезжают две незнакомки и заявляют, что это их старое место. Но уезжать ребята отказываются...
    Recorded date : UTC 1963-07-03 08:00:00
    Encoded date : UTC 2015-08-03 09:12:16
    Tagged date : UTC 2015-08-03 09:19:15
    Cover : Yes
    Rating : None
    Title/Sort : Три плюс два
    LongDescription : Трое друзей из Москвы живут "дикарями" в замечательном месте с песчаным пляжем, пресной водой, тенью и дровами у самого моря. Отдыхают. / Внезапно приезжают две незнакомки и заявляют, что это их старое место. Более того, они доказывают свое первенство, выкопав бутылку с письмом. Но уезжать ребята отказываются. Дамы же от своего места отказываться тоже не собираются и ставят палатку. / Начинается тихая война, перерастающая со временем в любовь. Один из тех фильмов, которые можно пересматривать не один раз.
    HDVideo : Yes
    AppleStoreCatalogID : 46792
    Vendor : Apple:vendor_id:1963-46792-4x3
    ContentRating : ru-movie|0+|000|
    Video #1
    ID : 1
    Format : AVC
    Format/Info : Advanced Video Codec
    Format profile : High@L3.1
    Format settings, CABAC : No
    Format settings, ReFrames : 3 frames
    Codec ID : avc1
    Codec ID/Info : Advanced Video Coding
    Duration : 1h 26mn
    Source duration : 1h 26mn
    Bit rate : 7 000 Kbps
    Width : 992 pixels
    Height : 720 pixels
    Display aspect ratio : 1.378
    Frame rate mode : Variable
    Frame rate : 23.976 fps
    Minimum frame rate : 23.810 fps
    Maximum frame rate : 24.390 fps
    Color space : YUV
    Chroma subsampling : 4:2:0
    Bit depth : 8 bits
    Scan type : Progressive
    Bits/(Pixel*Frame) : 0.409
    Stream size : 4.25 GiB (97%)
    Source stream size : 4.25 GiB (97%)
    Title : Main Program
    Writing library : x264 core 130 r2273 b3065e6
    Encoding settings : cabac=0 / ref=3 / deblock=1:-3:-2 / analyse=0x3:0x113 / me=umh / subme=9 / psy=1 / psy_rd=0.80:0.25 / mixed_ref=1 / me_range=32 / chroma_me=1 / trellis=0 / 8x8dct=1 / cqm=0 / deadzone=6,6 / fast_pskip=0 / chroma_qp_offset=-2 / threads=18 / lookahead_threads=1 / sliced_threads=0 / nr=0 / decimate=0 / interlaced=0 / bluray_compat=0 / constrained_intra=0 / bframes=3 / b_pyramid=0 / b_adapt=2 / b_bias=0 / direct=1 / weightb=0 / open_gop=0 / weightp=0 / keyint=240 / keyint_min=24 / scenecut=40 / intra_refresh=0 / rc_lookahead=40 / rc=2pass / mbtree=1 / bitrate=7000 / ratetol=1.0 / qcomp=0.80 / qpmin=0 / qpmax=69 / qpstep=4 / cplxblur=20.0 / qblur=0.5 / vbv_maxrate=9500 / vbv_bufsize=9500 / nal_hrd=none / ip_ratio=1.10 / aq=1:0.50
    Language : Russian
    Encoded date : UTC 2015-08-03 09:12:16
    Tagged date : UTC 2015-08-03 09:12:35
    Color range : Limited
    Color primaries : BT.709
    Transfer characteristics : BT.709
    Matrix coefficients : BT.709
    Video #2
    ID : 4
    Format : JPEG
    Codec ID : jpeg
    Duration : 1h 26mn
    Duration_LastFrame : -3mn 8s
    Bit rate mode : Variable
    Bit rate : 1 170 bps
    Width : 640 pixels
    Height : 464 pixels
    Display aspect ratio : 1.379
    Frame rate mode : Constant
    Frame rate : 0.002 fps
    Color space : YUV
    Chroma subsampling : 4:2:0
    Bit depth : 8 bits
    Compression mode : Lossy
    Bits/(Pixel*Frame) : 1.970
    Stream size : 643 KiB (0%)
    Title : Chapter Images
    Language : Russian
    Encoded date : UTC 2015-08-03 09:12:39
    Tagged date : UTC 2015-08-03 09:12:39
    Audio
    ID : 2
    Format : AAC
    Format/Info : Advanced Audio Codec
    Format profile : LC
    Codec ID : 40
    Duration : 1h 26mn
    Bit rate mode : Variable
    Bit rate : 211 Kbps
    Maximum bit rate : 226 Kbps
    Channel(s) : 2 channels
    Channel(s)_Original : 1 channel
    Channel positions : Front: C
    Sampling rate : 48.0 KHz
    Compression mode : Lossy
    Stream size : 131 MiB (3%)
    Title : Russian Mono
    Language : Russian
    Encoded date : UTC 2015-08-03 09:12:16
    Tagged date : UTC 2015-08-03 09:12:26
    Menu #1
    00:00:00.000 : 1
    00:10:00.600 : 2
    00:20:01.200 : 3
    00:30:01.800 : 4
    00:40:02.400 : 5
    00:50:03.000 : 6
    01:00:03.600 : 7
    01:10:04.200 : 8
    01:20:04.800 : 9
    Menu #2
    ID : 3
    Codec ID : text
    Duration : 1h 26mn
    Title : Chapter Titles
    Language : Russian
    Encoded date : UTC 2015-08-03 09:12:35
    Tagged date : UTC 2015-08-03 09:12:35
    Bit rate mode : CBR
    Duration_LastFrame : -188480
    00:00:00.000 : 1
    00:10:00.600 : 2
    00:20:01.200 : 3
    00:30:01.800 : 4
    00:40:02.400 : 5
    00:50:03.000 : 6
    01:00:03.600 : 7
    01:10:04.200 : 8
    01:20:04.800 : 9

    x264 лог 480p Release

    HandBrakeCLI -i "Tri.plus.dva.4.3.rus.mkv" -t 1 -o Tri.plus.dva.4.3.480p.rus.m4v -f mp4 -I -O -w 640 -l 480 --crop 0:0:218:218 --custom-anamorphic --modulus 16 --pixel-aspect 656:640 -e x264 -b 1800 -2 -a none -x cabac=0:ref=2:me=umh:bframes=0:weightp=0:subq=6:8x8dct=0:trellis=0:vbv-maxrate=5000:vbv-bufsize=5000 --verbose=1
    x264 [info]: frame I:1055  Avg QP:20.59  size: 41876  PSNR Mean Y:42.48 U:49.55 V:49.00 Avg:43.77 Global:43.20
    x264 [info]: frame P:124027 Avg QP:22.66  size:  9102  PSNR Mean Y:40.43 U:46.55 V:46.09 Avg:41.65 Global:41.46
    x264 [info]: mb I  I16..4:  8.5%  0.0% 91.5%
    x264 [info]: mb P  I16..4:  0.3%  0.0%  2.4%  P16..4: 53.9% 23.7% 10.5%  0.0%  0.0%    skip: 9.3%
    x264 [info]: coded y,uvDC,uvAC intra: 91.8% 68.3% 33.9% inter: 37.1% 25.8% 1.5%
    x264 [info]: i16 v,h,dc,p: 12% 28% 12% 48%
    x264 [info]: i4 v,h,dc,ddl,ddr,vr,hd,vl,hu: 14% 20% 16%  7%  9%  8% 11%  7%  8%
    x264 [info]: i8c dc,h,v,p: 55% 21% 17%  6%
    x264 [info]: ref P L0: 76.1% 23.9%
    x264 [info]: SSIM Mean Y:0.9673685 (14.864db)
    x264 [info]: PSNR Mean Y:40.444 U:46.573 V:46.110 Avg:41.664 Global:41.477 kb/s:1798.84

    x264 лог 720p Release

    HandBrakeCLI -i Tri.plus.dva.4.3.rus.mkv -t 1 -o Tri.plus.dva.4.3.720p.rus.m4v -f mp4 -4 -O -w 992 -l 720 --crop 0:0:218:218 --modulus 16 -e x264 -b 7000 -2 -a none -x cabac=0:ref=3:me=umh:b-pyramid=none:b-adapt=2:weightb=0:trellis=0:weightp=0:vbv-maxrate=9500:vbv-bufsize=9500:subq=9:merange=32:deblock=-3,-2:qcomp=0.80:qpmin=0:qpmax=69:fast_pskip=0:aq-strength=0.5:no-dct-decimate=1:psy-rd=0.80,0.25:ipratio=1.1:pbratio=1.1:deadzone-inter=6:deadzone-intra=6 --verbose=1
    x264 [info]: frame I:792   Avg QP:20.28  size: 96389  PSNR Mean Y:44.19 U:50.17 V:49.13 Avg:45.34 Global:45.24
    x264 [info]: frame P:41771 Avg QP:21.19  size: 62268  PSNR Mean Y:43.17 U:48.93 V:47.97 Avg:44.32 Global:44.22
    x264 [info]: frame B:82519 Avg QP:22.79  size: 22843  PSNR Mean Y:41.73 U:48.81 V:47.74 Avg:43.02 Global:42.90
    x264 [info]: consecutive B-frames:  1.4% 16.5% 46.3% 35.8%
    x264 [info]: mb I  I16..4:  1.1% 70.0% 29.0%
    x264 [info]: mb P  I16..4:  0.2% 12.1%  3.6%  P16..4: 41.7% 30.6% 11.7%  0.0%  0.0%    skip: 0.0%
    x264 [info]: mb B  I16..4:  0.0%  1.6%  0.5%  B16..8: 31.9% 14.6%  2.7%  direct:11.5%  skip:37.2%  L0:31.0% L1:34.2% BI:34.8%
    x264 [info]: 8x8 transform intra:74.9% inter:44.4%
    x264 [info]: coded y,uvDC,uvAC intra: 98.9% 65.5% 27.2% inter: 58.0% 25.1% 4.5%
    x264 [info]: i16 v,h,dc,p:  9% 15% 11% 66%
    x264 [info]: i8 v,h,dc,ddl,ddr,vr,hd,vl,hu:  7% 12%  5% 10% 15% 13% 16% 10% 12%
    x264 [info]: i4 v,h,dc,ddl,ddr,vr,hd,vl,hu:  7% 13%  2%  9% 16% 14% 17% 10% 12%
    x264 [info]: i8c dc,h,v,p: 49% 22% 19%  9%
    x264 [info]: ref P L0: 69.5% 19.3% 11.2%
    x264 [info]: ref B L0: 84.5% 15.5%
    x264 [info]: SSIM Mean Y:0.9692884 (15.127db)
    x264 [info]: PSNR Mean Y:42.227 U:48.860 V:47.829 Avg:43.470 Global:43.309 kb/s:6996.07

    Скриншоты 480p Release

    Скриншоты 720p Release

    Цитата:
    Цитата:

    • За обложку спасибо Ивану.
    -

    Релиз подготовлен для просмотра на Apple TV, iPad, iPhone, iPod Touch.
    Для просмотра данного релиза на компьютере с ОС Windows рекомендуется использовать VLC media player
    Скачать .torrent

    Скачать торрент-файл бесплатно и на максимальной скорости!

    Как скачивать? · Что такое торрент? · Рейтинг и ограничения

    !ВНИМАНИЕ!
    Сайт не распространяет и не хранит электронные версии произведений, а занимается лишь лишь предоставлением доступа к создаваемому пользователями каталогу ссылок на торрент-файлы, которые содержат только списки хеш-сумм, убедительная просьба с жалобами обращаться напрямую к пользователю. Файлы для обмена на трекере предоставлены пользователями сайта, и администрация не несёт ответственности за их содержание. Просьба не заливать файлы, защищенные авторскими правами, а также файлы нелегального содержания!


  • _________________
    [Профиль] [ЛС]
    Показать сообщения:    
    Ответить на тему

    Текущее время: Сегодня, в 07:58

    Часовой пояс: GMT + 2



    Вы не можете начинать темы
    Вы не можете отвечать на сообщения
    Вы не можете редактировать свои сообщения
    Вы не можете удалять свои сообщения
    Вы не можете голосовать в опросах
    Вы не можете прикреплять файлы к сообщениям
    Вы не можете скачивать файлы