BitTorrentTracker PerecTracker.org
BitTorrentTracker PerecTracker.org
    
Регистрация  ·  Вход
 
 · 
Забыли пароль?

  • Легкие деньги / Good People (Генрик Рубен Генц / Henrik Ruben Genz ) [2014, США, Великобритания, Дания, Швеция, Триллер, криминал, боевик, BDRip, HD (720p)] DUB + Original + sub (eng)

    Ответить на тему
     
    Автор Сообщение

    rechyn

    Создавать темы 22-Авг-2015 12:17

           

    [Цитировать]

    Легкие деньги / Good People
    «Бери и беги!»
    5.475 / 10 5.50 / 10
    -Год выпуска: 2014
    Страна: США, Великобритания, Дания, Швеция
    Жанр: Триллер, криминал, боевик
    Продолжительность: 01:30:34
    Перевод: Дублированный (ТК Кинопоказ HD-1)
    Оригинальная аудиодорожка: Есть
    Cубтитры: Английские, Английские SDH
    Режиссёр: Генрик Рубен Генц
    Сценарий: Келли Мастерсон, Маркус Сакей
    Продюсер: Эд Кэйтелл III, Томас Гаммльтофт, Эрик Кренцлер
    Оператор: Ёрген Йоханссон
    Композитор: Нил Дэвидж
    Художник: Кейв Куинн, Тим Блейк, Марк Раггетт
    Монтаж: Пол Тотхилл
    В ролях: Джеймс Франко, Кейт Хадсон, Омар Си, Том Уилкинсон, Сэм Спруэлл, Анна Фрил, Майкл Фокс, Диармед Мёрта, Френсис Маджи, Маартен Данненберг
    Мировая премьера: 12 августа 2014
    Премьера (РФ): 27 ноября 2014, «Ракета Релизинг»
    Описание: Том и Анна обыкновенная семейная пара. Работа, дом, долги по кредитам. Но ситуация меняется. Владелец их квартиры, живший этажом ниже, внезапно умирает, и супруги находят у него сумку с деньгами. 370 000 долларов, о которых, похоже, никто не знает. Жизнь Том и Анны может измениться в одночасье, но есть одна проблема. Эти деньги принадлежат бандитам, которые хотят их найти.-Качество исходника: BDRemux (Кинозал)
    Качество: BDRip
    Тип: HD (720p)
    Контейнер: M4V
    Видео: H.264, 1280x528, 2.40:1, 3 500 Kbps, 23.976 fps
    Аудио 1: Русский/Дублированный , AAC / 2.0 / 157 Kbps / 48.0 KHz
    Аудио 2: Английский/Оригинальная дорожка , AAC / 2.0 / 157 Kbps / 48.0 KHz
    Аудио 3: Русский/Дублированный , AC-3 / 5.1 / 448 Kbps / 48.0 KHz
    Аудио 4: Английский/Оригинальная дорожка , AC-3 / 5.1 / 640 Kbps / 48.0 KHz
    Субтитры 1: Английские полные
    Субтитры 2: Английские SDH
    -

    iTunes Meta Tags

    Sort Name: Good People
    XID: Apple:vendor_id:2014-462924
    contentID: 899200311
    Copyright: © 2014 GOOD PRODUCTIONS, INC.
    Screenwriters: Келли Мастерсон, Маркус Сакей
    Producers: Эд Кэйтелл III, Томас Гаммльтофт, Эрик Кренцлер
    Director: Генрик Рубен Генц
    Cast: Джеймс Франко, Кейт Хадсон, Омар Си, Том Уилкинсон, Сэм Спруэлл, Анна Фрил, Майкл Фокс, Дайармейд Мерта, Френсис Маджи, Маартен Данненберг, Сергей Смирнов, Станислав Стрелков
    Studio: Milennium Entertainment
    Rating: 11
    Long Description: Том и Анна обыкновенная семейная пара. Работа, дом, долги по кредитам. Но ситуация меняется. Владелец их квартиры, живший этажом ниже, внезапно умирает, и супруги находят у него сумку с деньгами. 370 000 долларов, о которых, похоже, никто не знает. Жизнь Том и Анны может измениться в одночасье, но есть одна проблема. Эти деньги принадлежат бандитам, которые хотят их найти.
    Description: Том и Анна обыкновенная семейная пара. Работа, дом, долги по кредитам. Но ситуация меняется. Владелец их квартиры, живший этажом ниже, внезапно умирает, и супруги находят у него сумку с деньгами. 370 000 долларов, о которых, похоже, никто не знает. Жизнь Том и Анны может измениться в одночасье, но есть одна проблема. Эти деньги принадлежат бандитам, которые хотят их найти.
    Release Date: 2014-08-12T08:00:00Z
    Genre: Thriller
    Artist: Henrik Ruben Genz
    Name: Good People

    MediaInfo

    General
    Complete name                            : /Users/imac/HandBrake/Good People (720p HD).m4v
    Format                                   : MPEG-4
    Codec ID                                 : M4V
    File size                                : 3.10 GiB
    Duration                                 : 1h 30mn
    Overall bit rate mode                    : Variable
    Overall bit rate                         : 4 906 Kbps
    Movie name                               : Good People
    Performer                                : Henrik Ruben Genz
    Genre                                    : Thriller
    Recorded date                            : UTC 2014-08-12 08:00:00
    Encoded date                             : UTC 2015-08-22 08:26:07
    Tagged date                              : UTC 2015-08-22 08:29:15
    Copyright                                : © 2014 GOOD PRODUCTIONS, INC.
    Cover                                    : Yes
    sonm                                     : Good People
    desc                                     : Том и Анна обыкновенная семейная пара. Работа, дом, долги по кредитам. Но ситуация меняется. Владелец их квартиры, живший этажом ниже, внезапно умирает, и супруги находят у него сумку с деньгами. 370 000 долларов, о которых, похоже, никто не знает. Жизнь Том и Анны может измениться в одночасье, но есть одна проблема. Эти деньги принадлежат бандитам, которые хотят их найти.
    ldes                                     : Том и Анна обыкновенная семейная пара. Работа, дом, долги по кредитам. Но ситуация меняется. Владелец их квартиры, живший этажом ниже, внезапно умирает, и супруги находят у него сумку с деньгами. 370 000 долларов, о которых, похоже, никто не знает. Жизнь Том и Анны может измениться в одночасье, но есть одна проблема. Эти деньги принадлежат бандитам, которые хотят их найти.
    hdvd                                     : 1
    stik                                     : 9
    rtng                                     : 0
    cnID                                     : 899200311
    xid                                      : Apple:vendor_id:2014-462924
    iTunEXTC                                 : mpaa|R|400|
    iTunMOVI                                 : <?xml version=\"1.0\" encoding=\"UTF-8\"?> / <!DOCTYPE plist PUBLIC \"-//Apple//DTD PLIST 1.0//EN\" \"http://anonym.to/?http://www.apple.com/DTDs/PropertyList-1.0.dtd\"> / <plist version=\"1.0\"> / <dict> /  <key>cast</key> /  <array> /   <dict> /    <key>name</key> /    <string>Джеймс Франко</string> /   </dict> /   <dict> /    <key>name</key> /    <string>Кейт Хадсон</string> /   </dict> /   <dict> /    <key>name</key> /    <string>Омар Си</string> /   </dict> /   <dict> /    <key>name</key> /    <string>Том Уилкинсон</string> /   </dict> /   <dict> /    <key>name</key> /    <string>Сэм Спруэлл</string> /   </dict> /   <dict> /    <key>name</key> /    <string>Анна Фрил</string> /   </dict> /   <dict> /    <key>name</key> /    <string>Майкл Фокс</string> /   </dict> /   <dict> /    <key>name</key> /    <string>Дайармейд Мерта</string> /   </dict> /   <dict> /    <key>name</key> /    <string>Френсис Маджи</string> /   </dict> /   <dict> /    <key>name</key> /    <string>Маартен Данненберг</string> /   </dict> /   <dict> /    <key>name</key> /    <string>Сергей Смирнов</string> /   </dict> /   <dict> /    <key>name</key> /    <string>Станислав Стрелков</string> /   </dict> /  </array> /  <key>directors</key> /  <array> /   <dict> /    <key>name</key> /    <string>Генрик Рубен Генц</string> /   </dict> /  </array> /  <key>producers</key> /  <array> /   <dict> /    <key>name</key> /    <string>Эд Кэйтелл III</string> /   </dict> /   <dict> /    <key>name</key> /    <string>Томас Гаммльтофт</string> /   </dict> /   <dict> /    <key>name</key> /    <string>Эрик Кренцлер</string> /   </dict> /  </array> /  <key>screenwriters</key> /  <array> /   <dict> /    <key>name</key> /    <string>Келли Мастерсон</string> /   </dict> /   <dict> /    <key>name</key> /    <string>Маркус Сакей</string> /   </dict> /  </array> /  <key>studio</key> /  <string>Milennium Entertainment</string> / </dict> / </plist>
    Video #1
    ID                                       : 1
    Format                                   : AVC
    Format/Info                              : Advanced Video Codec
    Format profile                           : High@L3.1
    Format settings, CABAC                   : No
    Format settings, ReFrames                : 3 frames
    Codec ID                                 : avc1
    Codec ID/Info                            : Advanced Video Coding
    Duration                                 : 1h 30mn
    Bit rate mode                            : Variable
    Bit rate                                 : 3 500 Kbps
    Width                                    : 1 280 pixels
    Height                                   : 528 pixels
    Display aspect ratio                     : 2.40:1
    Frame rate mode                          : Variable
    Frame rate                               : 23.976 fps
    Minimum frame rate                       : 23.974 fps
    Maximum frame rate                       : 23.981 fps
    Color space                              : YUV
    Chroma subsampling                       : 4:2:0
    Bit depth                                : 8 bits
    Scan type                                : Progressive
    Bits/(Pixel*Frame)                       : 0.216
    Stream size                              : 2.21 GiB (71%)
    Writing library                          : x264 core 142 r2479 dd79a61
    Encoding settings                        : cabac=0 / ref=3 / deblock=1:-3:-3 / analyse=0x3:0x113 / me=umh / subme=9 / psy=1 / psy_rd=1.00:0.15 / mixed_ref=1 / me_range=32 / chroma_me=1 / trellis=0 / 8x8dct=1 / cqm=0 / deadzone=21,11 / fast_pskip=0 / chroma_qp_offset=-2 / threads=36 / lookahead_threads=3 / sliced_threads=0 / nr=0 / decimate=0 / interlaced=0 / bluray_compat=0 / constrained_intra=0 / bframes=3 / b_pyramid=0 / b_adapt=2 / b_bias=0 / direct=1 / weightb=0 / open_gop=0 / weightp=0 / keyint=240 / keyint_min=24 / scenecut=40 / intra_refresh=0 / rc_lookahead=40 / rc=2pass / mbtree=1 / bitrate=3500 / ratetol=1.0 / qcomp=0.65 / qpmin=0 / qpmax=69 / qpstep=4 / cplxblur=20.0 / qblur=0.5 / vbv_maxrate=9500 / vbv_bufsize=9500 / nal_hrd=none / filler=0 / ip_ratio=1.40 / aq=1:1.10
    Language                                 : English
    Encoded date                             : UTC 2015-08-22 08:26:07
    Tagged date                              : UTC 2015-08-22 08:26:15
    Color primaries                          : BT.709-5, BT.1361, IEC 61966-2-4, SMPTE RP177
    Transfer characteristics                 : BT.709-5, BT.1361
    Matrix coefficients                      : BT.709-5, BT.1361, IEC 61966-2-4 709, SMPTE RP177
    Video #2
    ID                                       : 9
    Format                                   : JPEG
    Codec ID                                 : jpeg
    Duration                                 : 1h 30mn
    Bit rate mode                            : Variable
    Bit rate                                 : 523 bps
    Width                                    : 640 pixels
    Height                                   : 264 pixels
    Display aspect ratio                     : 2.40:1
    Frame rate mode                          : Constant
    Frame rate                               : 0.002 fps
    Color space                              : YUV
    Chroma subsampling                       : 4:2:0
    Bit depth                                : 8 bits
    Compression mode                         : Lossy
    Bits/(Pixel*Frame)                       : 1.548
    Stream size                              : 383 KiB (0%)
    Language                                 : English
    Encoded date                             : UTC 2015-08-22 08:26:21
    Tagged date                              : UTC 2015-08-22 08:26:21
    Audio #1
    ID                                       : 2
    Format                                   : AAC
    Format/Info                              : Advanced Audio Codec
    Format profile                           : LC
    Codec ID                                 : 40
    Duration                                 : 1h 30mn
    Bit rate mode                            : Variable
    Bit rate                                 : 157 Kbps
    Maximum bit rate                         : 239 Kbps
    Channel(s)                               : 2 channels
    Channel positions                        : Front: L R
    Sampling rate                            : 48.0 KHz
    Compression mode                         : Lossy
    Stream size                              : 102 MiB (3%)
    Language                                 : Russian
    Encoded date                             : UTC 2015-08-22 08:26:07
    Tagged date                              : UTC 2015-08-22 08:26:18
    Audio #2
    ID                                       : 3
    Format                                   : AAC
    Format/Info                              : Advanced Audio Codec
    Format profile                           : LC
    Codec ID                                 : 40
    Duration                                 : 1h 30mn
    Bit rate mode                            : Variable
    Bit rate                                 : 157 Kbps
    Maximum bit rate                         : 245 Kbps
    Channel(s)                               : 2 channels
    Channel positions                        : Front: L R
    Sampling rate                            : 48.0 KHz
    Compression mode                         : Lossy
    Stream size                              : 102 MiB (3%)
    Language                                 : English
    Encoded date                             : UTC 2015-08-22 08:26:07
    Tagged date                              : UTC 2015-08-22 08:26:18
    Audio #3
    ID                                       : 4
    Format                                   : AC-3
    Format/Info                              : Audio Coding 3
    Mode extension                           : CM (complete main)
    Format settings, Endianness              : Big
    Codec ID                                 : ac-3
    Duration                                 : 1h 30mn
    Bit rate mode                            : Constant
    Bit rate                                 : 448 Kbps
    Channel(s)                               : 6 channels
    Channel positions                        : Front: L C R, Side: L R, LFE
    Sampling rate                            : 48.0 KHz
    Bit depth                                : 16 bits
    Compression mode                         : Lossy
    Stream size                              : 290 MiB (9%)
    Language                                 : Russian
    Encoded date                             : UTC 2015-08-22 08:26:07
    Tagged date                              : UTC 2015-08-22 08:26:11
    Audio #4
    ID                                       : 5
    Format                                   : AC-3
    Format/Info                              : Audio Coding 3
    Mode extension                           : CM (complete main)
    Format settings, Endianness              : Big
    Codec ID                                 : ac-3
    Duration                                 : 1h 30mn
    Bit rate mode                            : Constant
    Bit rate                                 : 640 Kbps
    Channel(s)                               : 6 channels
    Channel positions                        : Front: L C R, Side: L R, LFE
    Sampling rate                            : 48.0 KHz
    Bit depth                                : 16 bits
    Compression mode                         : Lossy
    Stream size                              : 415 MiB (13%)
    Language                                 : English
    Encoded date                             : UTC 2015-08-22 08:26:07
    Tagged date                              : UTC 2015-08-22 08:26:11
    Text #1
    ID                                       : 6
    Format                                   : Timed text
    Muxing mode                              : sbtl
    Codec ID                                 : tx3g
    Duration                                 : 1h 22mn
    Bit rate mode                            : Variable
    Bit rate                                 : 40 bps
    Stream size                              : 24.3 KiB (0%)
    Language                                 : English
    Encoded date                             : UTC 2015-08-22 08:26:07
    Tagged date                              : UTC 2015-08-22 08:26:10
    Text #2
    ID                                       : 7
    Format                                   : Timed text
    Muxing mode                              : sbtl
    Codec ID                                 : tx3g
    Duration                                 : 1h 22mn
    Bit rate mode                            : Variable
    Bit rate                                 : 43 bps
    Stream size                              : 26.0 KiB (0%)
    Language                                 : English
    Encoded date                             : UTC 2015-08-22 08:26:07
    Tagged date                              : UTC 2015-08-22 08:26:10
    Text #3
    ID                                       : 8
    Format                                   : Apple text
    Codec ID                                 : text
    Duration                                 : 1h 30mn
    Bit rate mode                            : Variable
    Bit rate                                 : 0 bps
    Stream size                              : 279 Bytes (0%)
    Language                                 : English
    Encoded date                             : UTC 2015-08-22 08:26:18
    Tagged date                              : UTC 2015-08-22 08:26:18
    Menu
    00:00:00.000                             : Chapter 1
    00:06:21.965                             : Chapter 2
    00:13:11.499                             : Chapter 3
    00:19:34.590                             : Chapter 4
    00:26:35.719                             : Chapter 5
    00:34:10.340                             : Chapter 6
    00:43:39.700                             : Chapter 7
    00:52:26.643                             : Chapter 8
    00:59:51.087                             : Chapter 9
    01:08:15.508                             : Chapter 10
    01:16:25.539                             : Chapter 11
    01:22:45.544                             : Chapter 12

    x264 лог

    x264 [info]: frame I:1110  Avg QP:12.68  size:101155
    x264 [info]: frame P:41035 Avg QP:15.33  size: 34018
    x264 [info]: frame B:88146 Avg QP:17.06  size:  9849
    x264 [info]: consecutive B-frames:  2.0% 12.0% 34.0% 51.9%
    x264 [info]: mb I  I16..4:  9.4% 64.0% 26.5%
    x264 [info]: mb P  I16..4:  1.0%  5.1%  1.5%  P16..4: 39.3% 30.3% 12.7%  0.0%  0.0%    skip:10.1%
    x264 [info]: mb B  I16..4:  0.1%  0.9%  0.2%  B16..8: 45.2% 13.9%  2.2%  direct: 3.5%  skip:34.0%  L0:43.9% L1:49.9% BI: 6.2%
    x264 [info]: 8x8 transform intra:68.3% inter:39.0%
    x264 [info]: coded y,uvDC,uvAC intra: 89.3% 70.9% 52.6% inter: 26.4% 17.7% 11.6%
    x264 [info]: i16 v,h,dc,p: 51% 11% 10% 29%
    x264 [info]: i8 v,h,dc,ddl,ddr,vr,hd,vl,hu:  9%  8%  9% 11% 14% 14% 13% 11% 11%
    x264 [info]: i4 v,h,dc,ddl,ddr,vr,hd,vl,hu:  9%  7%  4% 13% 17% 16% 14% 11%  9%
    x264 [info]: i8c dc,h,v,p: 58% 15% 18%  9%
    x264 [info]: ref P L0: 65.1% 20.8% 14.1%
    x264 [info]: ref B L0: 73.9% 26.1%
    x264 [info]: kb/s:3498.29

    Скриншоты

    -

    Релиз подготовлен для просмотра на Apple TV, iPad, iPhone, iPod Touch.
    Для просмотра данного релиза на компьютере с ОС Windows рекомендуется использовать VLC media player
    Скачать .torrent

    Скачать торрент-файл бесплатно и на максимальной скорости!

    Как скачивать? · Что такое торрент? · Рейтинг и ограничения

    !ВНИМАНИЕ!
    Сайт не распространяет и не хранит электронные версии произведений, а занимается лишь лишь предоставлением доступа к создаваемому пользователями каталогу ссылок на торрент-файлы, которые содержат только списки хеш-сумм, убедительная просьба с жалобами обращаться напрямую к пользователю. Файлы для обмена на трекере предоставлены пользователями сайта, и администрация не несёт ответственности за их содержание. Просьба не заливать файлы, защищенные авторскими правами, а также файлы нелегального содержания!


    _________________
    [Профиль] [ЛС]
    Показать сообщения:    
    Ответить на тему

    Текущее время: Сегодня, в 19:51

    Часовой пояс: GMT + 2



    Вы не можете начинать темы
    Вы не можете отвечать на сообщения
    Вы не можете редактировать свои сообщения
    Вы не можете удалять свои сообщения
    Вы не можете голосовать в опросах
    Вы не можете прикреплять файлы к сообщениям
    Вы не можете скачивать файлы