BitTorrentTracker PerecTracker.org
BitTorrentTracker PerecTracker.org
    
Регистрация  ·  Вход
 
 · 
Забыли пароль?

  • Собачий Отель / Hundhotellet (Пер Олин / Per Åhlin) [2000, мультфильм, комедия, детектив, семейный, DVDRip] VO (Max Nabokov) + Swe + Nor + Danish

    Ответить на тему
     
    Автор Сообщение

    rechyn

    Создавать темы 22-Авг-2015 08:05

           

    [Цитировать]

    Собачий Отель / Hundhotellet
    Страна: Швеция, Дания, Норвегия
    Жанр: комедия, детектив, семейный
    Продолжительность: 1:04:55
    Год выпуска: 2000
    Перевод: Одноголосый закадровый (Max Nabokov)
    Русские субтитры: нет
    Режиссёр: Пер Олин / Per Åhlin
    Роли озвучивали: Ганс Альфредсон, Рольф Скоглунд, Бо Кристер Хьельте, Маргрет Вейверс, Karin Gidfors, Бьёрн Чьелльман, Johan Ulveson, Ян Мюбранд, Томас фон Брёмссен, Stig Grybe, Йохан Рабеус, Пернилла Уолгрен, Петер Харрисон...
    Описание: Таинственная история в духе Агптаы Кристи героями которой являются собаки, рассказывает о том как пес Стури и его друг художник Пикассо отправляются путешествовать на автомобиле в Париж. Но по дороге они останавливаются в гостинице для собак, «Розовый бутон». Где с ними происходят загадочные события. Познакомившись с писательницей детективных романов мисс Мопс, они вместе пытаются разгадать, что может связывать молодого байкера Баскервиля с пропажей их автомобиля. От чего так привязан нервный управляющий отеля к часам с маятником. Какую тайну скрывает странный постоялец доктор Дункельшпиль за его намерением продать богатому американцу каменное изваяние египетского бога Анубиса. И на что способна магия китайского мастера, Кэ Пина.
    Доп. информация: 12+
    Семпл
    Качество: DVDRip
    Формат: AVI
    Видео: Video: Xvid, 720x400, 25fps, 2200kbps
    Аудио 1: Dolby AC3 48000Hz stereo 192kbps (рус)
    Аудио 2: Dolby AC3 48000Hz stereo 192kbps (шве)
    Аудио 3: Dolby AC3 48000Hz stereo 192kbps (нор)
    Аудио 4: Dolby AC3 48000Hz stereo 192kbps (дат)

    Подробные технические данные

    GeneralComplete name : D:\Movie\HUNDHOTELLET_T01\HUNDHOTELLET.Per Åhlin.2000.DVDRip.(Max Nabokov).aviFormat : AVIFormat/Info : Audio Video InterleaveFile size : 1.36 GiBDuration : 1h 4mnOverall bit rate : 2 993 KbpsWriting application : VirtualDubMod 1.5.10.2 (build 2540/release)Writing library : VirtualDubMod build 2540/release
    VideoID : 0Format : MPEG-4 VisualFormat profile : Advanced Simple@L5Format settings, BVOP : 1Format settings, QPel : NoFormat settings, GMC : No warppointsFormat settings, Matrix : Default (H.263)Codec ID : XVIDCodec ID/Hint : XviDDuration : 1h 4mnBit rate : 2 201 KbpsWidth : 720 pixelsHeight : 400 pixelsDisplay aspect ratio : 16:9Frame rate : 25.000 fpsColor space : YUVChroma subsampling : 4:2:0Bit depth : 8 bitsScan type : ProgressiveCompression mode : LossyBits/(Pixel*Frame) : 0.306Stream size : 1 022 MiB (74%)Writing library : XviD 1.2.1 (UTC 2008-12-04)
    Audio #1ID : 1Format : AC-3Format/Info : Audio Coding 3Mode extension : CM (complete main)Format settings, Endianness : BigCodec ID : 2000Duration : 1h 4mnBit rate mode : ConstantBit rate : 192 KbpsChannel(s) : 2 channelsChannel positions : Front: L RSampling rate : 48.0 KHzCompression mode : LossyStream size : 89.2 MiB (6%)Alignment : Split accross interleavesInterleave, duration : 40 ms (1.00 video frame)Interleave, preload duration : 500 ms
    Audio #2ID : 2Format : AC-3Format/Info : Audio Coding 3Mode extension : CM (complete main)Format settings, Endianness : BigCodec ID : 2000Duration : 1h 4mnBit rate mode : ConstantBit rate : 192 KbpsChannel(s) : 2 channelsChannel positions : Front: L RSampling rate : 48.0 KHzCompression mode : LossyStream size : 89.2 MiB (6%)Alignment : Split accross interleavesInterleave, duration : 40 ms (1.00 video frame)Interleave, preload duration : 500 ms
    Audio #3ID : 3Format : AC-3Format/Info : Audio Coding 3Mode extension : CM (complete main)Format settings, Endianness : BigCodec ID : 2000Duration : 1h 4mnBit rate mode : ConstantBit rate : 192 KbpsChannel(s) : 2 channelsChannel positions : Front: L RSampling rate : 48.0 KHzCompression mode : LossyStream size : 89.2 MiB (6%)Alignment : Split accross interleavesInterleave, duration : 40 ms (1.00 video frame)Interleave, preload duration : 500 ms
    Audio #4ID : 4Format : AC-3Format/Info : Audio Coding 3Mode extension : CM (complete main)Format settings, Endianness : BigCodec ID : 2000Duration : 1h 4mnBit rate mode : ConstantBit rate : 192 KbpsChannel(s) : 2 channelsChannel positions : Front: L RSampling rate : 48.0 KHzCompression mode : LossyStream size : 89.2 MiB (6%)Alignment : Split accross interleavesInterleave, duration : 40 ms (1.00 video frame)Interleave, preload duration : 500 ms

    Скриншоты




    Скачать .torrent

    Скачать торрент-файл бесплатно и на максимальной скорости!

    Как скачивать? · Что такое торрент? · Рейтинг и ограничения

    !ВНИМАНИЕ!
    Сайт не распространяет и не хранит электронные версии произведений, а занимается лишь лишь предоставлением доступа к создаваемому пользователями каталогу ссылок на торрент-файлы, которые содержат только списки хеш-сумм, убедительная просьба с жалобами обращаться напрямую к пользователю. Файлы для обмена на трекере предоставлены пользователями сайта, и администрация не несёт ответственности за их содержание. Просьба не заливать файлы, защищенные авторскими правами, а также файлы нелегального содержания!


    _________________
    [Профиль] [ЛС]
    Показать сообщения:    
    Ответить на тему

    Текущее время: Сегодня, в 00:16

    Часовой пояс: GMT + 2



    Вы не можете начинать темы
    Вы не можете отвечать на сообщения
    Вы не можете редактировать свои сообщения
    Вы не можете удалять свои сообщения
    Вы не можете голосовать в опросах
    Вы не можете прикреплять файлы к сообщениям
    Вы не можете скачивать файлы