BitTorrentTracker PerecTracker.org
BitTorrentTracker PerecTracker.org
    
Регистрация  ·  Вход
 
 · 
Забыли пароль?

  • Даббе: Ядовитый демон / Dabbe: Zehr-i Cin (Хасан Карацадаг / Hasan Karacadag) [2014, Турция, Ужасы, DVDRip] DVO (Galina Vasyukova & datynet) + Original Tur

    Ответить на тему
     
    Автор Сообщение

    Light

    Создавать темы 21-Авг-2015 23:41

           

    [Цитировать]

    Даббе: Ядовитый демон / Dabbe: Zehr-i Cin
    Страна: Турция
    Жанр: Ужасы
    Год выпуска: 2014
    Продолжительность: 02:12:57
    Перевод: Любительский (двухголосый закадровый) Galina Vasyukova & datynet
    Cубтитры: нет
    Оригинальная аудиодорожка: турецкий
    Режиссер: Хасан Карацадаг / Hasan Karacadag
    В ролях: Юмит Бюлент Динджер, Нил Гюнал
    Описание: Однажды, счастливая пара Дилек и Омер, подвергаются нападению орды демонов из глубин ада. Такие события Дилек видела уже в своих снах, где ей не давали покоя мрачные фигуры.
    Внимание!!!! В фильме присутствует ненормативная лексика!
    Сэмпл: http://multi-up.com/1063240
    Качество видео: DVDRip
    Формат видео: AVI
    Видео: Xvid 720x400 25.00fps 1 556 Kbps
    Аудио: Dolby AC3 48000Hz 6ch 320kbps rus
    Аудио 2: Dolby AC3 48000Hz 6ch 320kbps tur

    MediaInfo

    Format : AVI
    Format/Info : Audio Video Interleave
    Format profile : OpenDML
    File size : 2.05 GiB
    Duration : 2h 12mn
    Overall bit rate : 2 213 Kbps
    Writing application : XviD4PSP 6.0 / 54.29.105
    Video
    Format : xvid
    Codec ID : xvid
    Duration : 2h 12mn
    Bit rate : 1 556 Kbps
    Width : 720 pixels
    Height : 400 pixels
    Display aspect ratio : 16:9
    Frame rate : 25.000 fps
    Bits/(Pixel*Frame) : 0.216
    Stream size : 1.45 GiB (70%)
    Audio #1
    ID : 1
    Format : AC-3
    Format/Info : Audio Coding 3
    Codec ID : 2000
    Duration : 2h 12mn
    Bit rate mode : Constant
    Bit rate : 320 Kbps
    Channel(s) : 6 channels
    Channel positions : Front: L C R, Surround: L R, LFE
    Sampling rate : 48.0 KHz
    Resolution : 16 bits
    Stream size : 304 MiB (14%)
    Alignment : Aligned on interleaves
    Interleave, duration : 32 ms (0.80 video frame)
    Audio #2
    ID : 2
    Format : AC-3
    Format/Info : Audio Coding 3
    Codec ID : 2000
    Duration : 2h 12mn
    Bit rate mode : Constant
    Bit rate : 320 Kbps
    Channel(s) : 6 channels
    Channel positions : Front: L C R, Surround: L R, LFE
    Sampling rate : 48.0 KHz
    Resolution : 16 bits
    Stream size : 304 MiB (14%)
    Alignment : Aligned on interleaves
    Interleave, duration : 32 ms (0.80 video frame)

    Скриншот c названием фильма

    Скриншоты

    Скачать .torrent

    Скачать торрент-файл бесплатно и на максимальной скорости!

    Как скачивать? · Что такое торрент? · Рейтинг и ограничения

    !ВНИМАНИЕ!
    Сайт не распространяет и не хранит электронные версии произведений, а занимается лишь лишь предоставлением доступа к создаваемому пользователями каталогу ссылок на торрент-файлы, которые содержат только списки хеш-сумм, убедительная просьба с жалобами обращаться напрямую к пользователю. Файлы для обмена на трекере предоставлены пользователями сайта, и администрация не несёт ответственности за их содержание. Просьба не заливать файлы, защищенные авторскими правами, а также файлы нелегального содержания!


    _________________
    [Профиль] [ЛС]
    Показать сообщения:    
    Ответить на тему

    Текущее время: Сегодня, в 00:24

    Часовой пояс: GMT + 2



    Вы не можете начинать темы
    Вы не можете отвечать на сообщения
    Вы не можете редактировать свои сообщения
    Вы не можете удалять свои сообщения
    Вы не можете голосовать в опросах
    Вы не можете прикреплять файлы к сообщениям
    Вы не можете скачивать файлы