BitTorrentTracker PerecTracker.org
BitTorrentTracker PerecTracker.org
    
Регистрация  ·  Вход
 
 · 
Забыли пароль?

  • Топ Гир: Фестиваль в Сиднее / Top Gear Festival: Sydney [2013 г., UK, Автопередача, WEB-DL 1080p] MVO (AlexFilm)

    Ответить на тему
     
    Автор Сообщение

    Light

    Создавать темы 21-Авг-2015 23:41

           

    [Цитировать]

    -Топ Гир: Фестиваль в Сиднее
    Top Gear Festival: Sydney
    --Год выхода: 2013
    Страна: Великобритания, Австралия
    Жанр: Автопередача
    Продолжительность: 49 мин
    Озвучание: профессиональное многоголосое закадровое (AlexFilm)
    Субтитры: нет-В ролях: Джереми Кларксон, Джеймс Мэй, Шэйн Джейкобсен, Стив Пиззати-Описание: В этом специальном выпуске Джереми Кларксон, Джеймс Мэй и ведущие австралийского "Топ Гира" Шэйн Джейкобсен и Стив Пиззати устраивают автомобильный фестиваль на глазах у сорока тысяч фанатов на гоночном треке в Сиднее, Австралия.
    Марк Уэббер будет соревноваться на своём болиде F1 против Кэйси Стоунера на супербайке.
    Джеймс попытается ускорить австралийскую почтовую службу с помощью гонщиков на супербайках.
    Кларксон попробует опередить олимпийского чемпиона по бегу с барьерами на Nissan GTR, а затем создаст реактивную версию себя, чтобы посоревноваться в драг-рейсинге.
    Вас также ожидает самая опасная версия автомобильного футбола на трёхколёсных Reliant Robin.-Релиз:
    Перевод: Константин Кривоногов, Полина Суворова
    Монтаж и сведение звука: Михаил Шорыгин
    Роли озвучивали:
  • Татьяна Манетина
  • Андрей Стакионис
  • Роман Сопко
  • Константин Погодаев- -Качество видео: WEB-DL 1080p
    Формат: MKV
    Видео: 1912x1072 (16:9), 25 fps, MPEG-4 AVC ~4874 kbps avg, 0.095 bit/pixel
    Аудио Rus: 48 kHz, MPEG Layer 3, 2 ch, ~192.00 kbps
    Аудио Eng: 48 kHz, MPEG Layer 3, 2 ch, ~192.00 kbps-

    Скриншоты

    MediaInfo

    Format : Matroska
    Format version : Version 4 / Version 2
    File size : 1.84 GiB
    Duration : 49mn 2s
    Overall bit rate : 5 365 Kbps
    Encoded date : UTC 2015-08-09 17:16:29
    Writing application : mkvmerge v8.2.0 ('World of Adventure') 64bit
    Writing library : libebml v1.3.1 + libmatroska v1.4.2
    Video
    ID : 1
    Format : AVC
    Format/Info : Advanced Video Codec
    Format profile : High@L4.0
    Format settings, CABAC : Yes
    Format settings, ReFrames : 4 frames
    Codec ID : V_MPEG4/ISO/AVC
    Duration : 49mn 2s
    Bit rate : 4 874 Kbps
    Width : 1 912 pixels
    Height : 1 072 pixels
    Display aspect ratio : 16:9
    Frame rate : 25.000 fps
    Color space : YUV
    Chroma subsampling : 4:2:0
    Bit depth : 8 bits
    Scan type : Progressive
    Bits/(Pixel*Frame) : 0.095
    Stream size : 1.67 GiB (91%)
    Language : English
    Default : Yes
    Forced : No
    Color primaries : BT.709-5, BT.1361, IEC 61966-2-4, SMPTE RP177
    Transfer characteristics : BT.709-5, BT.1361
    Matrix coefficients : BT.709-5, BT.1361, IEC 61966-2-4 709, SMPTE RP177
    Audio #1
    ID : 2
    Format : AC-3
    Format/Info : Audio Coding 3
    Mode extension : CM (complete main)
    Format settings, Endianness : Big
    Codec ID : A_AC3
    Duration : 49mn 2s
    Bit rate mode : Constant
    Bit rate : 192 Kbps
    Channel(s) : 2 channels
    Channel positions : Front: L R
    Sampling rate : 48.0 KHz
    Bit depth : 16 bits
    Compression mode : Lossy
    Stream size : 67.3 MiB (4%)
    Language : Russian
    Default : Yes
    Forced : No
    Audio #2
    ID : 3
    Format : AC-3
    Format/Info : Audio Coding 3
    Mode extension : CM (complete main)
    Format settings, Endianness : Big
    Codec ID : A_AC3
    Duration : 49mn 2s
    Bit rate mode : Constant
    Bit rate : 192 Kbps
    Channel(s) : 2 channels
    Channel positions : Front: L R
    Sampling rate : 48.0 KHz
    Bit depth : 16 bits
    Compression mode : Lossy
    Stream size : 67.3 MiB (4%)
    Language : English
    Default : No
    Forced : No
    -Раздачи Top Gear в озвучке AlexFilm-

  • _________________
    [Профиль] [ЛС]
    Показать сообщения:    
    Ответить на тему

    Текущее время: Сегодня, в 20:22

    Часовой пояс: GMT + 2



    Вы не можете начинать темы
    Вы не можете отвечать на сообщения
    Вы не можете редактировать свои сообщения
    Вы не можете удалять свои сообщения
    Вы не можете голосовать в опросах
    Вы не можете прикреплять файлы к сообщениям
    Вы не можете скачивать файлы