BitTorrentTracker PerecTracker.org
BitTorrentTracker PerecTracker.org
    
Регистрация  ·  Вход
 
 · 
Забыли пароль?

  • Батальонъ (Дмитрий Месхиев) [2015, Драма, военный, история, BDRip]

    Ответить на тему
     
    Автор Сообщение

    rechyn

    Создавать темы 20-Авг-2015 22:29

           

    [Цитировать]

    Батальонъ
    «Первый. Женский. Бессмертный»
    -Год выпуска: 2015
    Выпущено: Россия / Корнер Ворк
    Жанр: драма, военный, история
    Продолжительность: 02:08:54-Режиссёр:
    Дмитрий Месхиев-В ролях:
    Мария Аронова (Мария Бочкарева), Мария Кожевникова (Татищева), Ирина Рахманова (Фроська), Марат Башаров (Александр Керенский), Янина Малинчик (Дуся), Евгений Дятлов (Цепляев), Алёна Кучкова (Надя), Валерия Шкирандо (Вера), Николай Аузин (поручик Селезнев), Владимир Зайцев (Брусилов)-Описание:
    Весна 1917-го года. Февральская революция изменила жизнь России и ход Великой войны. Государь уже отрёкся от престола. В окопах, где противостояние с немцами длится уже не один год, вовсю ведут свою пропаганду большевики. Они призывают к миру с неприятелем. Российское офицерство фактически ничего не может решить без одобрения так называемых солдатских комитетов. Армия находится на пороге окончательного разложения.
    По приказу Временного правительства для поднятия боевого духа создаётся женский «Батальон смерти» под командованием георгиевского кавалера Марии Бочкарёвой. Своей службой «Батальон смерти» подаёт пример храбрости, мужества и спокойствия, поднимает дух солдат и доказывает, что каждая из этих женщин-героев достойна звания воина русской армии.-Релиз групп
    | | КиноПоиск | Сэмпл |-Качество: BDRip [Blu-Ray Disc | 1080p | BLUEBIRD]
    Формат: AVI
    Видео: 720x304 (2.37:1), 24.000 fps, XviD build 73 ~1963 kbps avg, 0.37 bit/pixel
    Аудио: 48 kHz, AC3 Dolby Digital, 3/2 (L,C,R,l,r) + LFE ch, ~448.00 kbps avg-

    Скриншоты

    MediaInfo

    General
    Complete name                            : D:\Batal`on_2015_BDRip_[2.18]_by_Dalemake.avi
    Format                                   : AVI
    Format/Info                              : Audio Video Interleave
    Format profile                           : OpenDML
    File size                                : 2.18 GiB
    Duration                                 : 2h 8mn
    Overall bit rate                         : 2 419 Kbps
    Writing application                      : VirtualDubMod 1.5.10.3 | www.virtualdub-fr.org || (build 2550/release)
    Writing library                          : VirtualDubMod build 2550/release
    Video
    ID                                       : 0
    Format                                   : MPEG-4 Visual
    Format profile                           : Advanced Simple@L5
    Format settings, BVOP                    : 1
    Format settings, QPel                    : No
    Format settings, GMC                     : No warppoints
    Format settings, Matrix                  : Custom
    Codec ID                                 : XVID
    Codec ID/Hint                            : XviD
    Duration                                 : 2h 8mn
    Bit rate                                 : 1 959 Kbps
    Width                                    : 720 pixels
    Height                                   : 304 pixels
    Display aspect ratio                     : 2.35:1
    Frame rate                               : 24.000 fps
    Color space                              : YUV
    Chroma subsampling                       : 4:2:0
    Bit depth                                : 8 bits
    Scan type                                : Progressive
    Compression mode                         : Lossy
    Bits/(Pixel*Frame)                       : 0.373
    Stream size                              : 1.76 GiB (81%)
    Writing library                          : XviD 73
    Audio
    ID                                       : 1
    Format                                   : AC-3
    Format/Info                              : Audio Coding 3
    Mode extension                           : CM (complete main)
    Format settings, Endianness              : Big
    Codec ID                                 : 2000
    Duration                                 : 2h 8mn
    Bit rate mode                            : Constant
    Bit rate                                 : 448 Kbps
    Channel(s)                               : 6 channels
    Channel positions                        : Front: L C R, Side: L R, LFE
    Sampling rate                            : 48.0 KHz
    Bit depth                                : 16 bits
    Compression mode                         : Lossy
    Stream size                              : 413 MiB (19%)
    Alignment                                : Split accross interleaves
    Interleave, duration                     : 42 ms (1.00 video frame)
    Interleave, preload duration             : 500 ms
    -
    Скачать .torrent

    Скачать торрент-файл бесплатно и на максимальной скорости!

    Как скачивать? · Что такое торрент? · Рейтинг и ограничения

    !ВНИМАНИЕ!
    Сайт не распространяет и не хранит электронные версии произведений, а занимается лишь лишь предоставлением доступа к создаваемому пользователями каталогу ссылок на торрент-файлы, которые содержат только списки хеш-сумм, убедительная просьба с жалобами обращаться напрямую к пользователю. Файлы для обмена на трекере предоставлены пользователями сайта, и администрация не несёт ответственности за их содержание. Просьба не заливать файлы, защищенные авторскими правами, а также файлы нелегального содержания!


    _________________
    [Профиль] [ЛС]
    Показать сообщения:    
    Ответить на тему

    Текущее время: Сегодня, в 02:37

    Часовой пояс: GMT + 2



    Вы не можете начинать темы
    Вы не можете отвечать на сообщения
    Вы не можете редактировать свои сообщения
    Вы не можете удалять свои сообщения
    Вы не можете голосовать в опросах
    Вы не можете прикреплять файлы к сообщениям
    Вы не можете скачивать файлы