BitTorrentTracker PerecTracker.org
BitTorrentTracker PerecTracker.org
    
Регистрация  ·  Вход
 
 · 
Забыли пароль?

  • Женщина в красных сапогах / La femme aux bottes rouges (Хуан Луис Бунюэль / Juan Luis Buñuel) [1974, Франция, Испания, Италия, фэнтэзи, драма, комедия, DVDRip] DVO

    Ответить на тему
     
    Автор Сообщение

    Columb

    Создавать темы 03-Июн-2013 07:30

           

    [Цитировать]

    Женщина в красных сапогах / La femme aux bottes rouges-Год выпуска: 1974
    Страна: Франция, Испания, Италия
    Жанр: фэнтэзи, драма, комедия
    Продолжительность: 01:31:43
    Перевод: Профессиональный (двухголосый, закадровый)
    Субтитры: нет

    Режиссер: Хуан Луис Бунюэль / Juan Luis Buñuel
    В ролях: Катрин Денёв, Фернандо Рей, Адальберто Мария Мерли, Жак Вебер, Хосе Сакристан, Эмма Коэн, Лаура Бетти, Анхель Алварез, Пилар Торрес, Марсело Арройта-Яурегуй

    Описание: Молодая писательница Франсуаза Леруа уверена, что хороший сюжет может подсказать только сама жизнь. И судьба преподносит ей шанс.
    Франсуаза оказалась вовлечена в странную и жестокую игру, в которой причудливо переплелись плоды воображения и реальность. Выйти из этого наваждения помогут лишь мудрость и интуиция, заложенные в женщине природой.

    Качество: DVDRip
    Формат: AVI
    Видео кодек: XviD
    Аудио кодек: AC3
    Видео: 672x384 (1.75:1), 25 fps, XviD build 73 ~2073 kbps avg, 0.32 bit/pixel
    Аудио: 48 kHz, AC3 Dolby Digital, 2/0 (L,R) ch, ~192 kbps

    MediaInfo

    General
    Complete name : G:\La.femme.aux.bottes.rouges.1974.dvdrip_[1.46]_[teko].avi
    Format : AVI
    Format/Info : Audio Video Interleave
    File size : 1.46 GiB
    Duration : 1h 31mn
    Overall bit rate : 2 271 Kbps
    Writing application : VirtualDubMod 1.5.10.3 | www.virtualdub-fr.org || (build 2550/release)
    Writing library : VirtualDubMod build 2550/release
    Video
    ID : 0
    Format : MPEG-4 Visual
    Format profile : Advanced Simple@L5
    Format settings, BVOP : 2
    Format settings, QPel : No
    Format settings, GMC : No warppoints
    Format settings, Matrix : Custom
    Codec ID : XVID
    Codec ID/Hint : XviD
    Duration : 1h 31mn
    Bit rate : 2 074 Kbps
    Width : 672 pixels
    Height : 384 pixels
    Display aspect ratio : 16:9
    Frame rate : 25.000 fps
    Color space : YUV
    Chroma subsampling : 4:2:0
    Bit depth : 8 bits
    Scan type : Progressive
    Compression mode : Lossy
    Bits/(Pixel*Frame) : 0.321
    Stream size : 1.33 GiB (91%)
    Writing library : XviD 73
    Audio
    ID : 1
    Format : AC-3
    Format/Info : Audio Coding 3
    Mode extension : CM (complete main)
    Codec ID : 2000
    Duration : 1h 29mn
    Bit rate mode : Constant
    Bit rate : 192 Kbps
    Channel(s) : 2 channels
    Channel positions : Front: L R
    Sampling rate : 48.0 KHz
    Bit depth : 16 bits
    Compression mode : Lossy
    Stream size : 123 MiB (8%)
    Alignment : Split accross interleaves
    Interleave, duration : 41 ms (1.02 video frame)
    Interleave, preload duration : 500 ms

    Скриншоты

    Скачать .torrent

    Скачать торрент-файл бесплатно и на максимальной скорости!

    Как скачивать? · Что такое торрент? · Рейтинг и ограничения

    !ВНИМАНИЕ!
    Сайт не распространяет и не хранит электронные версии произведений, а занимается лишь лишь предоставлением доступа к создаваемому пользователями каталогу ссылок на торрент-файлы, которые содержат только списки хеш-сумм, убедительная просьба с жалобами обращаться напрямую к пользователю. Файлы для обмена на трекере предоставлены пользователями сайта, и администрация не несёт ответственности за их содержание. Просьба не заливать файлы, защищенные авторскими правами, а также файлы нелегального содержания!

    [Профиль] [ЛС]
    Показать сообщения:    
    Ответить на тему

    Текущее время: Сегодня, в 11:52

    Часовой пояс: GMT + 2



    Вы не можете начинать темы
    Вы не можете отвечать на сообщения
    Вы не можете редактировать свои сообщения
    Вы не можете удалять свои сообщения
    Вы не можете голосовать в опросах
    Вы не можете прикреплять файлы к сообщениям
    Вы не можете скачивать файлы