BitTorrentTracker PerecTracker.org
BitTorrentTracker PerecTracker.org
    
Регистрация  ·  Вход
 
 · 
Забыли пароль?

  • Визит дамы (Михаил Козаков) [1989, драма, DVDRip-AVC]

    Ответить на тему
     
    Автор Сообщение

    Light

    Создавать темы 20-Авг-2015 22:29

           

    [Цитировать]

    Визит дамы (2 серии)-Жанр: драма
    Год выпуска: 1989
    Продолжительность: 02:15:21-Режиссёр: Михаил Козаков-В ролях:
    Екатерина Васильева, Валентин Гафт, Игорь Кашинцев, Валентин Никулин, Григорий Лямпе, Виктор Борцов, Валентин Смирнитский, Светлана Немоляева, Владимир Дружников, Валерий Носик, Александр Пятков, Дмитрий Дыховичный, Павел Винник, Александр Вигдоров
    Описание:
    Трагифарс по мотивам пьесы Ф. Дюренматта "Визит старой дамы". На свою родину, в маленький городок, приезжает миллиардерша Клер Цаханасян. Когда-то она вынуждена была отсюда бежать, нищая и опозоренная. Теперь она готова подарить городу миллиард, но взамен требует жизнь своего бывшего возлюбленного, предавшего ее в трудную минуту...-Исходник | Сэмпл | Кинопоиск-Качество видео: DVDRip-AVC
    Формат видео: MKV
    Видео: x264 (High@L4.1); 720@768x576, Display aspect ratio 4:3, 25.000 fps, 2103 Kbps
    Аудио: Оригинал AC-3; 16 bits 48 Khz; 2.0ch 192 Kbps; CBR
    MediaInfo

    -

    x264 log

    avs [info]: 720x576p 16:15 @ 25/1 fps (cfr)
    x264 [info]: using SAR=16/15
    x264 [info]: using cpu capabilities: MMX2 SSE2Fast SSSE3 SSE4.2
    x264 [info]: profile High, level 4.1
    x264 [info]: frame I:1163 Avg QP:18.32 size: 48191
    x264 [info]: frame P:43413 Avg QP:20.33 size: 21856
    x264 [info]: frame B:159199 Avg QP:22.35 size: 7146
    x264 [info]: consecutive B-frames: 1.9% 1.9% 15.9% 3.3% 3.4% 72.3% 1.1% 0.3%
    x264 [info]: mb I I16..4: 4.4% 87.9% 7.7%
    x264 [info]: mb P I16..4: 0.3% 13.3% 1.1% P16..4: 45.2% 22.8% 16.4% 0.4% 0.1% skip: 0.3%
    x264 [info]: mb B I16..4: 0.0% 0.9% 0.1% B16..8: 48.1% 11.9% 2.6% direct: 9.2% skip:27.3% L0:40.0% L1:40.7% BI:19.3%
    x264 [info]: 8x8 transform intra:90.0% inter:67.6%
    x264 [info]: direct mvs spatial:98.9% temporal:1.1%
    x264 [info]: coded y,uvDC,uvAC intra: 97.0% 80.3% 42.2% inter: 35.1% 29.5% 6.5%
    x264 [info]: i16 v,h,dc,p: 12% 9% 19% 60%
    x264 [info]: i8 v,h,dc,ddl,ddr,vr,hd,vl,hu: 17% 10% 15% 7% 9% 10% 9% 11% 12%
    x264 [info]: i4 v,h,dc,ddl,ddr,vr,hd,vl,hu: 15% 9% 3% 8% 14% 16% 13% 12% 11%
    x264 [info]: i8c dc,h,v,p: 36% 25% 24% 14%
    x264 [info]: Weighted P-Frames: Y:11.3% UV:2.9%
    x264 [info]: ref P L0: 38.8% 14.3% 17.6% 5.5% 5.4% 3.3% 3.6% 1.7% 1.9% 1.3% 1.5% 1.1% 1.3% 0.9% 1.1% 0.6%
    x264 [info]: ref B L0: 72.1% 12.4% 4.5% 2.5% 1.8% 1.6% 1.2% 0.8% 0.6% 0.6% 0.5% 0.5% 0.4% 0.3% 0.1%
    x264 [info]: ref B L1: 92.6% 7.4%
    x264 [info]: kb/s:2102.89
    x264 [total]: encoded 203775 frames, 10.36 fps, 2102.89 kb/s
    -General
    Unique ID : 190574134227837101432699843974114594186 (0x8F5F3E409E71361A8360A878DE2C4D8A)
    Complete name : Визит дамы.1989.mkv
    Format : Matroska
    Format version : Version 2
    File size : 2.18 GiB
    Duration : 2h 15mn
    Overall bit rate : 2 297 Kbps
    Movie name : «Визит дамы»
    Encoded date : UTC 2015-08-20 13:11:29
    Writing application : mkvmerge v5.8.0 ('No Sleep / Pillow') built on Sep 2 2012 15:37:04
    Writing library : libebml v1.2.3 + libmatroska v1.3.0
    Comment : DVDRip-AVC
    Originally released : August 18th 2015
    Encoded by : george$t®
    Video
    ID : 1
    Format : AVC
    Format/Info : Advanced Video Codec
    Format profile : High@L4.1
    Format settings, CABAC : Yes
    Format settings, ReFrames : 16 frames
    Codec ID : V_MPEG4/ISO/AVC
    Duration : 2h 15mn
    Bit rate : 2 103 Kbps
    Width : 720 pixels
    Height : 576 pixels
    Display aspect ratio : 4:3
    Frame rate mode : Constant
    Frame rate : 25.000 fps
    Standard : PAL
    Color space : YUV
    Chroma subsampling : 4:2:0
    Bit depth : 8 bits
    Scan type : Progressive
    Bits/(Pixel*Frame) : 0.203
    Stream size : 1.95 GiB (90%)
    Title : Визит дамы.1989
    Writing library : x264 core 146 r2538kMod 121396c
    Encoding settings : cabac=1 / ref=16 / deblock=1:-1:0 / analyse=0x3:0x133 / me=umh / subme=10 / psy=1 / fade_compensate=0.00 / psy_rd=1.00:0.15 / mixed_ref=1 / me_range=32 / chroma_me=1 / trellis=2 / 8x8dct=1 / cqm=0 / deadzone=21,11 / fast_pskip=0 / chroma_qp_offset=-3 / threads=12 / lookahead_threads=2 / sliced_threads=0 / nr=0 / decimate=0 / interlaced=0 / bluray_compat=0 / constrained_intra=0 / fgo=0 / bframes=7 / b_pyramid=2 / b_adapt=2 / b_bias=0 / direct=3 / weightb=1 / open_gop=0 / weightp=2 / keyint=250 / keyint_min=25 / scenecut=40 / intra_refresh=0 / rc_lookahead=40 / rc=2pass / mbtree=0 / bitrate=2103 / ratetol=1.0 / qcomp=0.60 / qpmin=0 / qpmax=69 / qpstep=4 / cplxblur=20.0 / qblur=0.5 / vbv_maxrate=50000 / vbv_bufsize=62500 / nal_hrd=none / filler=0 / ip_ratio=1.25 / pb_ratio=1.30 / aq=1:0.50
    Language : Russian
    Default : Yes
    Forced : No
    Color primaries : BT.601 PAL
    Transfer characteristics : BT.470 System B, BT.470 System G
    Matrix coefficients : BT.601
    Color range : Limited
    Audio
    ID : 2
    Format : AC-3
    Format/Info : Audio Coding 3
    Mode extension : CM (complete main)
    Format settings, Endianness : Big
    Codec ID : A_AC3
    Duration : 2h 15mn
    Bit rate mode : Constant
    Bit rate : 192 Kbps
    Channel(s) : 2 channels
    Channel positions : Front: L R
    Sampling rate : 48.0 KHz
    Bit depth : 16 bits
    Compression mode : Lossy
    Stream size : 187 MiB (8%)
    Title : Оригинал AC-3; 16 bits 48 Khz; 2.0ch 192 Kbps; CBR
    Language : Russian
    Default : Yes
    Forced : No
    Menu
    00:00:00.000 : ru:1 серия. Титры. Город и горожане
    00:14:27.480 : ru:Визит дамы
    00:21:20.880 : ru:Встреча
    00:28:51.920 : ru:Осмотр достопримечательностей
    00:37:53.880 : ru:Приятные воспоминания
    00:46:47.920 : ru:Праздничный ужин
    00:53:26.480 : ru:Единственное условие
    01:03:58.400 : ru:Ответ горожан
    01:07:08.400 : ru:2 серия. Настроение горожан
    01:13:29.480 : ru:Жизнь в долг
    01:23:44.320 : ru:Страх. Праздник
    01:35:00.000 : ru:Венчание. Побег
    01:41:38.880 : ru:Утром
    01:47:15.040 : ru:Речь учителя
    01:56:48.080 : ru:Поздний визит
    02:02:53.600 : ru:Собрание городской общины. Финал
    Скачать .torrent

    Скачать торрент-файл бесплатно и на максимальной скорости!

    Как скачивать? · Что такое торрент? · Рейтинг и ограничения

    !ВНИМАНИЕ!
    Сайт не распространяет и не хранит электронные версии произведений, а занимается лишь лишь предоставлением доступа к создаваемому пользователями каталогу ссылок на торрент-файлы, которые содержат только списки хеш-сумм, убедительная просьба с жалобами обращаться напрямую к пользователю. Файлы для обмена на трекере предоставлены пользователями сайта, и администрация не несёт ответственности за их содержание. Просьба не заливать файлы, защищенные авторскими правами, а также файлы нелегального содержания!


    _________________
    [Профиль] [ЛС]
    Показать сообщения:    
    Ответить на тему

    Текущее время: Сегодня, в 00:10

    Часовой пояс: GMT + 2



    Вы не можете начинать темы
    Вы не можете отвечать на сообщения
    Вы не можете редактировать свои сообщения
    Вы не можете удалять свои сообщения
    Вы не можете голосовать в опросах
    Вы не можете прикреплять файлы к сообщениям
    Вы не можете скачивать файлы