BitTorrentTracker PerecTracker.org
BitTorrentTracker PerecTracker.org
    
Регистрация  ·  Вход
 
 · 
Забыли пароль?

  • Детка / Laggies (Линн Шелтон / Lynn Shelton) [2014, США, мелодрама, BDRip-AVC] Dub (iTunes) + ENG + SUB (eng)

    Ответить на тему
     
    Автор Сообщение

    Light

    Создавать темы 20-Авг-2015 01:29

           

    [Цитировать]

    Детка / Laggies
    «Я девочка, я не хочу ничего решать!»

    -
    Страна: США
    Жанр: мелодрама
    Год выпуска: 2014
    Продолжительность: 01:39:23-Перевод: Профессиональный (дублированный) лицензия iTunes (местами нет перевода)
    Cубтитры: английские-Режиссер: Линн Шелтон / Lynn Shelton
    В ролях: Кира Найтли, Хлоя Грейс Морец, Сэм Рокуэлл, Марк Веббер, Элли Кемпер, Джефф Гарлин, Гретхен Мол, Эрик Ридман, Кейтлин Девер, Дэниэл Дзоватто.
    Описание: Когда Меган получает предложение от парня, с которым уже давно встречается, оказывается, что на самом деле она абсолютно не готова к взрослой жизни. Поэтому она берет паузу, врёт своему парню, что уезжает на недельку в отпуск, а сама буквально «впадает в детство» и отрывается в компании малознакомых тинейджеров. Возможно, чтобы повзрослеть, ей нужно встретить другого мужчину?-Качество видео: BDRip-AVC [BDRemux 1080p NNMClub]
    Формат видео: MKV-Видео: х.264, 1152x624 (1.85:1), 23.976 fps, ~2303 Кbps, 0.134 bit/pixel
    Аудио 1: AC3 384 Кбит/сек (6 ch), 48,0 КГц, 16 бит | DUB
    Аудио 2: AC3 448 Кбит/сек (6 ch), 48,0 КГц, 16 бит | ENG
    Формат субтитров: SoftSub (SRT)
    --
    -
    -

    MediaInfo & log x264

    log x264

    x264 [info]: using SAR=1/1
    x264 [info]: using cpu capabilities: MMX2 SSE2Fast SSSE3 SSE4.2
    x264 [info]: profile High, level 4.1
    x264 [info]: frame I:1136 Avg QP:14.90 size: 98713
    x264 [info]: frame P:29926 Avg QP:17.77 size: 25255
    x264 [info]: frame B:111926 Avg QP:19.96 size: 7581
    x264 [info]: consecutive B-frames: 1.4% 4.5% 4.9% 15.8% 17.9% 47.8% 4.8% 1.0% 0.8% 0.3% 0.2% 0.1% 0.2% 0.2% 0.3%
    x264 [info]: mb I I16..4: 4.9% 77.1% 18.1%
    x264 [info]: mb P I16..4: 0.6% 6.0% 0.8% P16..4: 33.8% 34.6% 12.1% 1.5% 0.1% skip:10.4%
    x264 [info]: mb B I16..4: 0.1% 0.5% 0.1% B16..8: 33.2% 17.3% 2.4% direct: 3.5% skip:43.0% L0:44.5% L1:45.3% BI:10.2%
    x264 [info]: 8x8 transform intra:79.5% inter:58.6%
    x264 [info]: direct mvs spatial:96.8% temporal:3.2%
    x264 [info]: coded y,uvDC,uvAC intra: 85.8% 84.7% 62.6% inter: 15.4% 16.2% 2.7%
    x264 [info]: i16 v,h,dc,p: 22% 16% 6% 57%
    x264 [info]: i8 v,h,dc,ddl,ddr,vr,hd,vl,hu: 11% 8% 7% 9% 13% 14% 12% 13% 13%
    x264 [info]: i4 v,h,dc,ddl,ddr,vr,hd,vl,hu: 12% 11% 6% 8% 14% 14% 12% 11% 11%
    x264 [info]: i8c dc,h,v,p: 39% 23% 20% 18%
    x264 [info]: Weighted P-Frames: Y:1.1% UV:0.5%
    x264 [info]: ref P L0: 43.4% 7.5% 20.0% 7.0% 6.6% 4.5% 4.4% 2.1% 2.3% 1.9% 0.2% 0.0%
    x264 [info]: ref B L0: 69.5% 13.3% 6.4% 3.4% 2.4% 2.3% 1.7% 0.7% 0.3%
    x264 [info]: ref B L1: 91.9% 8.1%
    x264 [info]: kb/s:2302.50
    Format/Info                 : Advanced Video Codec
    Format profile              : High@L4.1
    Format settings, CABAC      : Yes
    Format settings, ReFrames   : 10 frames
    Codec ID                    : V_MPEG4/ISO/AVC
    Duration                    : 1h 39mn
    Bit rate                    : 2 303 Kbps
    Width                       : 1 152 pixels
    Height                      : 624 pixels
    Display aspect ratio        : 1.85:1
    Frame rate mode             : Constant
    Frame rate                  : 23.976 fps
    Color space                 : YUV
    Chroma subsampling          : 4:2:0
    Bit depth                   : 8 bits
    Scan type                   : Progressive
    Bits/(Pixel*Frame)          : 0.134
    Stream size                 : 1.56 GiB (71%)
    Writing library             : x264 core 146 r2538 121396c
    Encoding settings           : cabac=1 / ref=10 / deblock=1:-2:-2 / analyse=0x3:0x133 / me=esa / subme=11 / psy=1 / psy_rd=0.93:0.00 / mixed_ref=1 / me_range=48 / chroma_me=1 / trellis=2 / 8x8dct=1 / cqm=0 / deadzone=21,11 / fast_pskip=0 / chroma_qp_offset=-2 / threads=6 / lookahead_threads=1 / sliced_threads=0 / nr=0 / decimate=1 / interlaced=0 / bluray_compat=0 / constrained_intra=0 / bframes=14 / b_pyramid=2 / b_adapt=2 / b_bias=0 / direct=3 / weightb=1 / open_gop=0 / weightp=2 / keyint=240 / keyint_min=23 / scenecut=40 / intra_refresh=0 / rc_lookahead=40 / rc=2pass / mbtree=0 / bitrate=2303 / ratetol=1.0 / qcomp=0.60 / qpmin=0 / qpmax=69 / qpstep=4 / cplxblur=20.0 / qblur=0.5 / vbv_maxrate=50000 / vbv_bufsize=62500 / nal_hrd=none / filler=0 / ip_ratio=1.40 / pb_ratio=1.30 / aq=2:1.00
    Default                     : Yes
    Forced                      : No
    Audio #1
    ID                          : 2
    Format                      : AC-3
    Format/Info                 : Audio Coding 3
    Mode extension              : CM (complete main)
    Format settings, Endianness : Big
    Codec ID                    : A_AC3
    Duration                    : 1h 39mn
    Bit rate mode               : Constant
    Bit rate                    : 384 Kbps
    Channel(s)                  : 6 channels
    Channel positions           : Front: L C R, Side: L R, LFE
    Sampling rate               : 48.0 KHz
    Compression mode            : Lossy
    Stream size                 : 273 MiB (12%)
    Language                    : Russian
    Default                     : Yes
    Forced                      : No
    Audio #2
    ID                          : 3
    Format                      : AC-3
    Format/Info                 : Audio Coding 3
    Mode extension              : CM (complete main)
    Format settings, Endianness : Big
    Codec ID                    : A_AC3
    Duration                    : 1h 39mn
    Bit rate mode               : Constant
    Bit rate                    : 448 Kbps
    Channel(s)                  : 6 channels
    Channel positions           : Front: L C R, Side: L R, LFE
    Sampling rate               : 48.0 KHz
    Compression mode            : Lossy
    Stream size                 : 319 MiB (14%)
    Language                    : English
    Default                     : No
    Forced                      : No
    Text
    ID                          : 4
    Format                      : UTF-8
    Codec ID                    : S_TEXT/UTF8
    Codec ID/Info               : UTF-8 Plain Text
    Title                       : SDH
    Language                    : English
    Default                     : Yes
    Forced                      : No
    Menu
    00:00:00.000                : :Chapter 01
    00:07:23.359                : :Chapter 02
    00:13:09.914                : :Chapter 03
    00:17:17.578                : :Chapter 04
    00:24:35.098                : :Chapter 05
    00:29:50.997                : :Chapter 06
    00:33:44.981                : :Chapter 07
    00:39:45.091                : :Chapter 08
    00:45:31.895                : :Chapter 09
    00:51:26.249                : :Chapter 10
    01:00:09.522                : :Chapter 11
    01:07:57.156                : :Chapter 12
    01:14:56.283                : :Chapter 13
    01:22:21.061                : :Chapter 14
    01:29:27.195                : :Chapter 15
    01:33:31.772                : :Chapter 16

    Скриншоты




    Скачать .torrent

    Скачать торрент-файл бесплатно и на максимальной скорости!

    Как скачивать? · Что такое торрент? · Рейтинг и ограничения

    !ВНИМАНИЕ!
    Сайт не распространяет и не хранит электронные версии произведений, а занимается лишь лишь предоставлением доступа к создаваемому пользователями каталогу ссылок на торрент-файлы, которые содержат только списки хеш-сумм, убедительная просьба с жалобами обращаться напрямую к пользователю. Файлы для обмена на трекере предоставлены пользователями сайта, и администрация не несёт ответственности за их содержание. Просьба не заливать файлы, защищенные авторскими правами, а также файлы нелегального содержания!


    _________________
    [Профиль] [ЛС]
    Показать сообщения:    
    Ответить на тему

    Текущее время: Сегодня, в 16:22

    Часовой пояс: GMT + 2



    Вы не можете начинать темы
    Вы не можете отвечать на сообщения
    Вы не можете редактировать свои сообщения
    Вы не можете удалять свои сообщения
    Вы не можете голосовать в опросах
    Вы не можете прикреплять файлы к сообщениям
    Вы не можете скачивать файлы