BitTorrentTracker PerecTracker.org
BitTorrentTracker PerecTracker.org
    
Регистрация  ·  Вход
 
 · 
Забыли пароль?

  • Когда Санта упал на Землю / Als der Weihnachtsmann vom Himmel fiel / When Santa Fell to Earth (Оливер Дикманн / Oliver Dieckmann) [2011, Германия, фэнтези, комедия, семейный, DVDRip-AVC] MVO

    Ответить на тему
     
    Автор Сообщение

    Light

    Создавать темы 19-Авг-2015 00:17

           

    [Цитировать]

    Когда Санта упал на Землю / Als der Weihnachtsmann vom Himmel fiel / When Santa Fell to Earth

    Страна: Германия
    Жанр: фэнтези, комедия, семейный
    Год выпуска: 2011
    Продолжительность: 01:43:00
    Перевод: Профессиональный (многоголосый закадровый)
    Cубтитры: нет
    Режиссер: Оливер Дикманн / Oliver Dieckmann
    В ролях: Александр Шеер, Ной Краус, Ядеа, Джессика Шварц, Фриц Карл, Фолькер Лехтенбринк, Кристина Урспрух, Чарли Хюбнер, Грушенка Стивенс, Пауль Альхеузер
    Описание: Маленькому Бену, переехавшему из большого города в маленький городок накануне Рождества, очень грустно: папа потерял работу, мама занята открытием своего кондитерского магазина, да и в новой школе ему не особо рады. И вот, как-то в грозу, с неба падает Санта-Клаус, и жизнь Бена переворачивается с ног на голову. Так начинаются волшебные рождественские приключения Бена и его одноклассницы Шарлотты…

    Сэмпл: https://yadi.sk/i/AYKfIkljiW7U2
    Качество видео: DVDRip-AVC
    Формат видео: MKV
    Видео: AVC, 720x576@1024x576, 16:9, 25 fps, 1837 kbps
    Аудио: AC3, 48 kHz, 192 kbps, 2.0 (L,R)

    MediaInfo

    General
    Unique ID : 244635160643558065391627254288644099940 (0xB80B04A462FAB03F9D5A867B98D4CF64)
    Complete name : Когда Санта упал на Землю [2011].mkv
    Format : Matroska
    Format version : Version 4 / Version 2
    File size : 1.46 GiB
    Duration : 1h 43mn
    Overall bit rate : 2 030 Kbps
    Encoded date : UTC 2015-08-15 06:21:30
    Writing application : mkvmerge v8.1.0 ('Psychedelic Postcard') 64bit
    Writing library : libebml v1.3.1 + libmatroska v1.4.2
    DURATION : 01:43:00.032000000
    NUMBER_OF_FRAMES : 193126
    NUMBER_OF_BYTES : 148320768
    _STATISTICS_WRITING_APP : mkvmerge v8.1.0 ('Psychedelic Postcard') 64bit
    _STATISTICS_WRITING_DATE_UTC : 2015-08-15 06:21:30
    _STATISTICS_TAGS : BPS DURATION NUMBER_OF_FRAMES NUMBER_OF_BYTES
    Video
    ID : 1
    Format : AVC
    Format/Info : Advanced Video Codec
    Format profile : High@L4.1
    Format settings, CABAC : Yes
    Format settings, ReFrames : 16 frames
    Codec ID : V_MPEG4/ISO/AVC
    Duration : 1h 43mn
    Bit rate : 1 837 Kbps
    Width : 720 pixels
    Height : 576 pixels
    Display aspect ratio : 16:9
    Original display aspect ratio : 5:4
    Frame rate mode : Constant
    Frame rate : 25.000 fps
    Standard : PAL
    Color space : YUV
    Chroma subsampling : 4:2:0
    Bit depth : 8 bits
    Scan type : Progressive
    Bits/(Pixel*Frame) : 0.177
    Stream size : 1.29 GiB (89%)
    Writing library : x264 core 130 r2274bm c832fe9
    Encoding settings : cabac=1 / ref=16 / deblock=1:-1:-1 / analyse=0x3:0x133 / me=umh / subme=10 / psy=1 / psy_rd=1.00:0.15 / mixed_ref=1 / me_range=24 / chroma_me=1 / trellis=2 / 8x8dct=1 / cqm=0 / deadzone=21,11 / fast_pskip=1 / chroma_qp_offset=-3 / threads=12 / lookahead_threads=2 / sliced_threads=0 / nr=0 / decimate=1 / interlaced=0 / bluray_compat=0 / constrained_intra=0 / bframes=8 / b_pyramid=2 / b_adapt=2 / b_bias=0 / direct=3 / weightb=1 / open_gop=0 / weightp=2 / keyint=250 / keyint_min=25 / scenecut=40 / intra_refresh=0 / rc_lookahead=60 / rc=2pass / mbtree=1 / bitrate=1837 / ratetol=1.0 / qcomp=0.60 / qpmin=0 / qpmax=69 / qpstep=4 / cplxblur=20.0 / qblur=0.5 / ip_ratio=1.40 / aq=1:1.00
    Language : German
    Default : Yes
    Forced : No
    Audio
    ID : 2
    Format : AC-3
    Format/Info : Audio Coding 3
    Mode extension : CM (complete main)
    Format settings, Endianness : Big
    Codec ID : A_AC3
    Duration : 1h 43mn
    Bit rate mode : Constant
    Bit rate : 192 Kbps
    Channel(s) : 2 channels
    Channel positions : Front: L R
    Sampling rate : 48.0 KHz
    Bit depth : 16 bits
    Compression mode : Lossy
    Stream size : 141 MiB (9%)
    Title : MVO
    Language : Russian
    Default : Yes
    Forced : No

    Скриншот c названием фильма

    Скриншоты

    Скачать .torrent

    Скачать торрент-файл бесплатно и на максимальной скорости!

    Как скачивать? · Что такое торрент? · Рейтинг и ограничения

    !ВНИМАНИЕ!
    Сайт не распространяет и не хранит электронные версии произведений, а занимается лишь лишь предоставлением доступа к создаваемому пользователями каталогу ссылок на торрент-файлы, которые содержат только списки хеш-сумм, убедительная просьба с жалобами обращаться напрямую к пользователю. Файлы для обмена на трекере предоставлены пользователями сайта, и администрация не несёт ответственности за их содержание. Просьба не заливать файлы, защищенные авторскими правами, а также файлы нелегального содержания!


    _________________
    [Профиль] [ЛС]
    Показать сообщения:    
    Ответить на тему

    Текущее время: Сегодня, в 16:40

    Часовой пояс: GMT + 2



    Вы не можете начинать темы
    Вы не можете отвечать на сообщения
    Вы не можете редактировать свои сообщения
    Вы не можете удалять свои сообщения
    Вы не можете голосовать в опросах
    Вы не можете прикреплять файлы к сообщениям
    Вы не можете скачивать файлы