BitTorrentTracker PerecTracker.org
BitTorrentTracker PerecTracker.org
    
Регистрация  ·  Вход
 
 · 
Забыли пароль?

  • Мятеж / Riot (Джозеф Мерхи / Joseph Merhi) [1996, США, боевик, DVDRip] AVO (Гаврилов)

    Ответить на тему
     
    Автор Сообщение

    Columb

    Создавать темы 02-Июн-2013 15:38

           

    [Цитировать]

    Мятеж / Riot-Год выпуска: 1996
    Страна: США
    Жанр: боевик
    Продолжительность: 01:33:25
    Перевод: Авторский (одноголосый, закадровый)
    Субтитры: нет
    Режиссер: Джозеф Мерхи / Joseph Merhi
    В ролях: Гэри Дэниелс, Шугар Рэй Леонард, Пэйдж Роулэнд, Патрик Килпатрик, Кеннет Тайгар, Декс Эллиот Сандерс, Чарльз Нэпьер, Эддисон Рэндалл, Том Берри, Тим Колсери, Скотт Шепард, Рон Баркер
    Описание: Почти пять минут идут титры на фоне городских беспорядков. По фабуле картины это бунт, начавшийся в рождество 1999 года. На седьмой минуте черные бандюги захватывают в лимузине двух ангелоподобных и в то же время соблазнительных юных блондиночек. На девятой минуте мы видим, как Гэри Дэниэлс качает мышцы и колотит "грушу". В этом боевике он играет роль офицера элитного подразделения ВВС Шэйна Олкотта, приехавшего из Англии обучать американских солдат защищать свои семьи. Свое искусство он демонстрирует белым расистам (обидели его чернокожего коллегу) только на 15 минуте, но зато очень убедительно. Вспомнили? Сюжет же боевика состоит в том, что наш герой разыскивает похищенную вместе с приятельницей дочь британского посла, за которую требуют 2 миллиона. (Иванов М.)
    Доп. информация: За раритетную дорогу с переводом Андрея Гаврилова с лицензионной VHS от West Video благодарим duckling-by2
    За синхронизацию дороги и работу со звуком большая благодарность ale_x2008.
    Качество: DVDRip
    Формат: AVI
    Видео кодек: MPEG4
    Аудио кодек: MP3
    Видео: 720x544, 25.000 fps, MPEG-4 Visual, 1952 kbps
    Аудио: 44.1 kHz, MPEG Layer 3, 2 ch, 256 kbps

    MediaInfo

    General
    Complete name : G:\Кино\Riot.avi
    Format : AVI
    Format/Info : Audio Video Interleave
    File size : 1.45 GiB
    Duration : 1h 33mn
    Overall bit rate : 2 217 Kbps
    Writing application : VirtualDubMod 1.5.10.2 (build 2540/release)
    Writing library : VirtualDub build 29896/release
    Video
    ID : 0
    Format : MPEG-4 Visual
    Format profile : Advanced Simple@L5
    Format settings, BVOP : 2
    Format settings, QPel : No
    Format settings, GMC : No warppoints
    Format settings, Matrix : Default (MPEG)
    Codec ID : XVID
    Codec ID/Hint : XviD
    Duration : 1h 33mn
    Bit rate : 1 952 Kbps
    Width : 720 pixels
    Height : 544 pixels
    Display aspect ratio : 4:3
    Frame rate : 25.000 fps
    Color space : YUV
    Chroma subsampling : 4:2:0
    Bit depth : 8 bits
    Scan type : Progressive
    Compression mode : Lossy
    Bits/(Pixel*Frame) : 0.199
    Stream size : 1.27 GiB (88%)
    Writing library : XviD 1.2.1 (UTC 2008-12-04)
    Audio
    ID : 1
    Format : MPEG Audio
    Format version : Version 1
    Format profile : Layer 3
    Codec ID : 55
    Codec ID/Hint : MP3
    Duration : 1h 33mn
    Bit rate mode : Constant
    Bit rate : 256 Kbps
    Channel(s) : 2 channels
    Sampling rate : 44.1 KHz
    Compression mode : Lossy
    Stream size : 171 MiB (12%)
    Alignment : Split accross interleaves
    Interleave, duration : 40 ms (1.00 video frame)
    Interleave, preload duration : 500 ms

    Скриншоты

    Скачать .torrent

    Скачать торрент-файл бесплатно и на максимальной скорости!

    Как скачивать? · Что такое торрент? · Рейтинг и ограничения

    !ВНИМАНИЕ!
    Сайт не распространяет и не хранит электронные версии произведений, а занимается лишь лишь предоставлением доступа к создаваемому пользователями каталогу ссылок на торрент-файлы, которые содержат только списки хеш-сумм, убедительная просьба с жалобами обращаться напрямую к пользователю. Файлы для обмена на трекере предоставлены пользователями сайта, и администрация не несёт ответственности за их содержание. Просьба не заливать файлы, защищенные авторскими правами, а также файлы нелегального содержания!

    [Профиль] [ЛС]
    Показать сообщения:    
    Ответить на тему

    Текущее время: Сегодня, в 22:32

    Часовой пояс: GMT + 2



    Вы не можете начинать темы
    Вы не можете отвечать на сообщения
    Вы не можете редактировать свои сообщения
    Вы не можете удалять свои сообщения
    Вы не можете голосовать в опросах
    Вы не можете прикреплять файлы к сообщениям
    Вы не можете скачивать файлы