Register  ·  Log in
Forgot password?

  • Ретивый поросенок (Резо Чархалашвили) [1979 г., Комедия, короткометражный, SATRip]

    Reply to topic
    Author Message


    Post 19-Aug-2015 01:17



    Ретивый поросенокГод выпуска: 1979.
    Жанр: Комедия, короткометражный.
    Продолжительность: 00:45:08.
    Режиссер: Резо Чархалашвили.
    В ролях:
    Сесилия Такаишвили, Зураб Капианидзе, Лия (Лиана) Гудадзе, Ева Хутунашвили, Григол Талаквадзе, Зураб Лаперадзе.
    Кинокомедия об озорном поросенке и его добрых, веселых хозяевах. Своими проделками поросенок прославился на всё село. Намаявшись с ним хозяева, Марта и её сын Кукури, повезли проказника в Тбилиси на базар.
    Доп. информация:
    Страна: СССР .
    Киностудия: Грузия-фильм по заказу Гостелерадио СССР.
    Автор сценария: Сулико Жгенти.
    Оператор: Игорь Амасийский.
    Композитор: Нугзар Вацадзе.
    Художник: Николай Казбеги.

    Рип с этой раздачи.
    Большое спасибо Cheef mate и TarasBilbo за предоставленый материал для рипа!!!

    Качество: SATRip
    Формат: AVI
    Видео: 704x528 (1.33:1), 25 fps, XviD build 73 ~2118 kbps avg, 0.23 bit/pixel
    Аудио: 48 kHz, AC3 Dolby Digital, 2/0 (L,R) ch, ~192 kbps

    Отчет MI

    Complete name : Retivyj.porosyonok.1979.XviD.SATRip.fenixclub.avi
    Format : AVI
    Format/Info : Audio Video Interleave
    File size : 749 MiB
    Duration : 45mn 7s
    Overall bit rate : 2 320 Kbps
    Writing application : VirtualDubMod | || (build 2550/release)
    Writing library : VirtualDubMod build 2550/release
    ID : 0
    Format : MPEG-4 Visual
    Format profile : Advanced Simple@L5
    Format settings, BVOP : 2
    Format settings, QPel : No
    Format settings, GMC : No warppoints
    Format settings, Matrix : Custom
    Codec ID : XVID
    Codec ID/Hint : XviD
    Duration : 45mn 7s
    Bit rate : 2 118 Kbps
    Width : 704 pixels
    Height : 528 pixels
    Display aspect ratio : 4:3
    Frame rate : 25.000 fps
    Color space : YUV
    Chroma subsampling : 4:2:0
    Bit depth : 8 bits
    Scan type : Progressive
    Compression mode : Lossy
    Bits/(Pixel*Frame) : 0.228
    Stream size : 684 MiB (91%)
    Writing library : XviD 73
    ID : 1
    Format : AC-3
    Format/Info : Audio Coding 3
    Mode extension : CM (complete main)
    Format settings, Endianness : Big
    Codec ID : 2000
    Duration : 45mn 7s
    Bit rate mode : Constant
    Bit rate : 192 Kbps
    Channel(s) : 2 channels
    Channel positions : Front: L R
    Sampling rate : 48.0 KHz
    Compression mode : Lossy
    Stream size : 62.0 MiB (8%)
    Alignment : Split accross interleaves
    Interleave, duration : 40 ms (1.00 video frame)
    Interleave, preload duratio : 500 ms.

    Альтернативный хост

    Download .torrent

    Download free and at maximum speed!

    How to Download? · What is a torrent? · Ratings and Limitations

    The site does not extend and does not store electronic(digital) versions of products, and only gives access to a reference catalogue created by users on torrent-files which contain only lists of the hash-sums, the earnest entreaty, with complaints(abuse) to access directly to the user. Files for an exchange on tracker are given by users of a site, and the administration does not bear the responsibility for their maintenance. The request to not fill in the files protected by copyrights, and also files of the illegal maintenance!

    [Profile] [PM]
    Display posts from previous:    
    Reply to topic

    The time now is: Today 16:18

    All times are GMT + 3 Hours

    You cannot post new topics in this forum
    You cannot reply to topics in this forum
    You cannot edit your posts in this forum
    You cannot delete your posts in this forum
    You cannot vote in polls in this forum
    You cannot attach files in this forum
    You cannot download files in this forum