Register  ·  Log in
Forgot password?

  • Роса (Анатолий Ниточкин) [1975 г., киноповесть, детский, SATRip]

    Reply to topic
    Author Message


    Post 19-Aug-2015 01:17



    РосаГод выпуска: 1975.
    Жанр: киноповесть, детский.
    Продолжительность: 01:23:13.
    Режиссер: Анатолий Ниточкин.
    В ролях:
    Валера Богомолов, Татьяна Назарова, Саша Галанский, Борис Чирков, Любовь Соколова, Виктор Косых, Лариса Лужина, Дмитрий Орловский, Клементина Ростовцева, Юрий Назаров, Майя Булгакова, Степан Крылов, Александр Харитонов.
    О деревенских школьниках-следопытах, занявшихся восстановлением памяти о героическом прошлом своих односельчан в годы Великой Отечественной войны.
    Доп. информация:
    Страна: СССР .
    Киностудия: Творческое объединение "Экран".
    Премьера: 1 мая 1975 года (ТВ).
    Автор сценария: Алексей Коркищенко.
    Оператор: Александр Воропаев.
    Композитор: Георгий Фиртич.
    Художник: Виктор Лукьянов.


    Качество: SATRip
    Формат: AVI
    Видео: 640x480 (1.33:1), 25 fps, XviD build 73 ~1125 kbps avg, 0.15 bit/pixel
    Аудио: 48 kHz, MPEG Layer 3, 2 ch, ~128.00 kbps avg

    Отчет MI

    Complete name : Rosa.1975.XviD.SATRip_752.avi
    Format : AVI
    Format/Info : Audio Video Interleave
    File size : 752 MiB
    Duration : 1h 23mn
    Overall bit rate : 1 264 Kbps
    Writing application : VirtualDubMod | || (build 2550/release)
    Writing library : VirtualDubMod build 2550/release
    ID : 0
    Format : MPEG-4 Visual
    Format profile : Advanced Simple@L5
    Format settings, BVOP : 2
    Format settings, QPel : No
    Format settings, GMC : No warppoints
    Format settings, Matrix : Custom
    Codec ID : XVID
    Codec ID/Hint : XviD
    Duration : 1h 23mn
    Bit rate : 1 126 Kbps
    Width : 640 pixels
    Height : 480 pixels
    Display aspect ratio : 4:3
    Frame rate : 25.000 fps
    Color space : YUV
    Chroma subsampling : 4:2:0
    Bit depth : 8 bits
    Scan type : Progressive
    Compression mode : Lossy
    Bits/(Pixel*Frame) : 0.147
    Stream size : 670 MiB (89%)
    Writing library : XviD 73
    ID : 1
    Format : MPEG Audio
    Format version : Version 1
    Format profile : Layer 3
    Codec ID : 55
    Codec ID/Hint : MP3
    Duration : 1h 23mn
    Bit rate mode : Constant
    Bit rate : 128 Kbps
    Channel(s) : 2 channels
    Sampling rate : 48.0 KHz
    Compression mode : Lossy
    Stream size : 76.2 MiB (10%)
    Alignment : Aligned on interleaves
    Interleave, duration : 40 ms (1.00 video frame)
    Interleave, preload duratio : 504 ms
    Writing library : LAME3.99r
    Encoding settings : -m s -V 4 -q 2 -lowpass 17 -b 128


    Альтернативный хост

    Download .torrent

    Download free and at maximum speed!

    How to Download? · What is a torrent? · Ratings and Limitations

    The site does not extend and does not store electronic(digital) versions of products, and only gives access to a reference catalogue created by users on torrent-files which contain only lists of the hash-sums, the earnest entreaty, with complaints(abuse) to access directly to the user. Files for an exchange on tracker are given by users of a site, and the administration does not bear the responsibility for their maintenance. The request to not fill in the files protected by copyrights, and also files of the illegal maintenance!

    [Profile] [PM]
    Display posts from previous:    
    Reply to topic

    The time now is: Today 05:17

    All times are GMT + 3 Hours

    You cannot post new topics in this forum
    You cannot reply to topics in this forum
    You cannot edit your posts in this forum
    You cannot delete your posts in this forum
    You cannot vote in polls in this forum
    You cannot attach files in this forum
    You cannot download files in this forum