BitTorrentTracker PerecTracker.org
BitTorrentTracker PerecTracker.org
    
Регистрация  ·  Вход
 
 · 
Забыли пароль?

  • Роса (Анатолий Ниточкин) [1975 г., киноповесть, детский, SATRip]

    Ответить на тему
     
    Автор Сообщение

    Light

    Создавать темы 19-Авг-2015 00:17

           

    [Цитировать]

    РосаГод выпуска: 1975.
    Жанр: киноповесть, детский.
    Продолжительность: 01:23:13.
    Режиссер: Анатолий Ниточкин.
    В ролях:
    Валера Богомолов, Татьяна Назарова, Саша Галанский, Борис Чирков, Любовь Соколова, Виктор Косых, Лариса Лужина, Дмитрий Орловский, Клементина Ростовцева, Юрий Назаров, Майя Булгакова, Степан Крылов, Александр Харитонов.
    Описание:
    О деревенских школьниках-следопытах, занявшихся восстановлением памяти о героическом прошлом своих односельчан в годы Великой Отечественной войны.
    Доп. информация:
    Страна: СССР .
    Киностудия: Творческое объединение "Экран".
    Премьера: 1 мая 1975 года (ТВ).
    Автор сценария: Алексей Коркищенко.
    Оператор: Александр Воропаев.
    Композитор: Георгий Фиртич.
    Художник: Виктор Лукьянов.

    Релиз

    Качество: SATRip
    Формат: AVI
    Видео: 640x480 (1.33:1), 25 fps, XviD build 73 ~1125 kbps avg, 0.15 bit/pixel
    Аудио: 48 kHz, MPEG Layer 3, 2 ch, ~128.00 kbps avg

    Отчет MI

    General
    Complete name : Rosa.1975.XviD.SATRip_752.avi
    Format : AVI
    Format/Info : Audio Video Interleave
    File size : 752 MiB
    Duration : 1h 23mn
    Overall bit rate : 1 264 Kbps
    Writing application : VirtualDubMod 1.5.10.3 | www.virtualdub-fr.org || (build 2550/release)
    Writing library : VirtualDubMod build 2550/release
    Video
    ID : 0
    Format : MPEG-4 Visual
    Format profile : Advanced Simple@L5
    Format settings, BVOP : 2
    Format settings, QPel : No
    Format settings, GMC : No warppoints
    Format settings, Matrix : Custom
    Codec ID : XVID
    Codec ID/Hint : XviD
    Duration : 1h 23mn
    Bit rate : 1 126 Kbps
    Width : 640 pixels
    Height : 480 pixels
    Display aspect ratio : 4:3
    Frame rate : 25.000 fps
    Color space : YUV
    Chroma subsampling : 4:2:0
    Bit depth : 8 bits
    Scan type : Progressive
    Compression mode : Lossy
    Bits/(Pixel*Frame) : 0.147
    Stream size : 670 MiB (89%)
    Writing library : XviD 73
    Audio
    ID : 1
    Format : MPEG Audio
    Format version : Version 1
    Format profile : Layer 3
    Codec ID : 55
    Codec ID/Hint : MP3
    Duration : 1h 23mn
    Bit rate mode : Constant
    Bit rate : 128 Kbps
    Channel(s) : 2 channels
    Sampling rate : 48.0 KHz
    Compression mode : Lossy
    Stream size : 76.2 MiB (10%)
    Alignment : Aligned on interleaves
    Interleave, duration : 40 ms (1.00 video frame)
    Interleave, preload duratio : 504 ms
    Writing library : LAME3.99r
    Encoding settings : -m s -V 4 -q 2 -lowpass 17 -b 128

    Скриншоты

    Альтернативный хост

    Скачать .torrent

    Скачать торрент-файл бесплатно и на максимальной скорости!

    Как скачивать? · Что такое торрент? · Рейтинг и ограничения

    !ВНИМАНИЕ!
    Сайт не распространяет и не хранит электронные версии произведений, а занимается лишь лишь предоставлением доступа к создаваемому пользователями каталогу ссылок на торрент-файлы, которые содержат только списки хеш-сумм, убедительная просьба с жалобами обращаться напрямую к пользователю. Файлы для обмена на трекере предоставлены пользователями сайта, и администрация не несёт ответственности за их содержание. Просьба не заливать файлы, защищенные авторскими правами, а также файлы нелегального содержания!


    _________________
    [Профиль] [ЛС]
    Показать сообщения:    
    Ответить на тему

    Текущее время: Сегодня, в 10:42

    Часовой пояс: GMT + 2



    Вы не можете начинать темы
    Вы не можете отвечать на сообщения
    Вы не можете редактировать свои сообщения
    Вы не можете удалять свои сообщения
    Вы не можете голосовать в опросах
    Вы не можете прикреплять файлы к сообщениям
    Вы не можете скачивать файлы