Register  ·  Log in
Forgot password?

  • Из породы беглецов / The Fugitive Kind (Сидни Люмет / Sidney Lumet) [1959, США, драма, мелодрама, DVDRip] DVO (Т/К Культура)

    Reply to topic
    Author Message


    Post 02-Jun-2013 16:28



    Из породы беглецов / The Fugitive Kind-Страна: США
    Жанр: драма, мелодрама
    Год выпуска: 1959
    Продолжительность: 02:01:16
    Перевод: Профессиональный (двухголосый закадровый) Т/К Культура
    Cубтитры: нет
    Режиссер: Сидни Люмет / Sidney Lumet
    В ролях:
    Марлон Брандо
    Джоэнн Вудворд
    Анна Маньяни
    Морин Стейплтон
    Виктор Джори
    Р.Г. Армстронг
    Вирджилия Чю
    Мадам Спиви
    Бен Яффи
    Джо Браун мл.

    Описание: По пьесе Теннесси Уильямса "Орфей спускается в ад". Вэл по прозвищу "Змеиная кожа" решает сменить образ жизни. Оказавшись в провинциальном городке, он устраивается продавцом в магазин Джейба Торренса. Между ним и женой хозяина магазина возникают теплые отношения. Но Вэл приглянулся еще и взбалмошной бродяжке Кэрол...
    Качество видео: DVDRip
    Формат видео: AVI
    Видео: Xvid 592x352 23.976fps 728 Kbps Bits/Pixel 0.146
    Аудио: MP3 48000Hz stereo 128kbps


    Complete name : H:\Мои видеозаписи\Из
    породы беглецов.avi
    Format : AVI
    Format/Info : Audio Video Interleave
    File size : 751 MiB
    Duration : 2h 1mn
    Overall bit rate : 865 Kbps
    Director : sergtor09 from
    Writing application : VirtualDubMod
    (build 2540/release)
    Writing library : VirtualDubMod build
    ID : 0
    Format : MPEG-4 Visual
    Format profile : Advanced Simple@L5
    Format settings, BVOP : 2
    Format settings, QPel : No
    Format settings, GMC : No warppoints
    Format settings, Matrix : Default (H.263)
    Muxing mode : Packed bitstream
    Codec ID : XVID
    Codec ID/Hint : XviD
    Duration : 2h 1mn
    Bit rate : 728 Kbps
    Width : 592 pixels
    Height : 352 pixels
    Display aspect ratio : 1.682
    Frame rate : 23.976 fps
    Color space : YUV
    Chroma subsampling : 4:2:0
    Bit depth : 8 bits
    Scan type : Progressive
    Compression mode : Lossy
    Bits/(Pixel*Frame) : 0.146
    Stream size : 632 MiB (84%)
    Writing library : XviD 1.0.3 (UTC
    ID : 1
    Format : MPEG Audio
    Format version : Version 1
    Format profile : Layer 3
    Mode : Joint stereo
    Mode extension : MS Stereo
    Codec ID : 55
    Codec ID/Hint : MP3
    Duration : 2h 1mn
    Bit rate mode : Constant
    Bit rate : 128 Kbps
    Channel(s) : 2 channels
    Sampling rate : 48.0 KHz
    Compression mode : Lossy
    Stream size : 111 MiB (15%)
    Alignment : Aligned on interleaves
    Interleave, duration : 42 ms (1.00 video
    Interleave, preload duration : 504 ms
    Writing library : LAME3.98
    Encoding settings : -m j -V 4 -q 3 -lowpass
    17 -b 128

    Скриншот c названием фильма


    Download .torrent

    Download free and at maximum speed!

    How to Download? · What is a torrent? · Ratings and Limitations

    The site does not extend and does not store electronic(digital) versions of products, and only gives access to a reference catalogue created by users on torrent-files which contain only lists of the hash-sums, the earnest entreaty, with complaints(abuse) to access directly to the user. Files for an exchange on tracker are given by users of a site, and the administration does not bear the responsibility for their maintenance. The request to not fill in the files protected by copyrights, and also files of the illegal maintenance!

    [Profile] [PM]
    Display posts from previous:    
    Reply to topic

    The time now is: Today 13:59

    All times are GMT + 3 Hours

    You cannot post new topics in this forum
    You cannot reply to topics in this forum
    You cannot edit your posts in this forum
    You cannot delete your posts in this forum
    You cannot vote in polls in this forum
    You cannot attach files in this forum
    You cannot download files in this forum