BitTorrentTracker PerecTracker.org
BitTorrentTracker PerecTracker.org
    
Регистрация  ·  Вход
 
 · 
Забыли пароль?

  • Гранатовый браслет (Абрам Роом) [1964, Драма, мелодрама, SATRip-AVC]

    Ответить на тему
     
    Автор Сообщение

    Light

    Создавать темы 19-Авг-2015 00:17

           

    [Цитировать]

    -Гранатовый браслет-Жанр: Драма, мелодрама
    Год выпуска: 1964
    Продолжительность: 01:25:42-Режиссёр: Абрам Роом-В ролях: Игорь Озеров, Ариадна Шенгелая, Олег Басилашвили, Владислав Стржельчик, Наталья Малявина, Юрий Аверин, Леонид Галлис, Жанна (Жаннета) Тертерян, Зоя Василькова, Сергей Карнович-Валуа, Григорий Гай, Павел Массальский, Ольга Жизнева, Валентин Кулик, Владимир Раутбарт, Александр Барушной, Виктор Лазарев-Описание: По одноименному рассказу А.И.Куприна.
    Одна из самых трогательных и печальных историй о любви. В ее основу был положен реальный случай, о котором довелось узнать писателю. История возвышенной неразделенной любви мелкого чиновника к молодой светской даме...-Доп. информация:

    Производство: Мосфильм, СССР, 1964 г.
    Сценаристы: Анатолий Гранберг, Абрам Роом
    Оператор: Леонид Крайненков
    Художники: Орест Аликин, Абрам Фрейдин, Ирина Шретер-Семпл: https://yadi.sk/i/PLR7ilbVjPEid-Качество видео: SATRip-AVC
    Формат видео: MKV
    Видео кодек: H.264
    Аудио кодек: AC3
    Видео: 688@746x328 анаморф (2.274:1), 25 fps, ~2277 kbps
    Аудио: 48 kHz, AC3 Dolby Digital, 2/0 (L,R) ch, ~192 kbps-Внимание! Торрент обновлен 29.09.15. Произведен ремастеринг изображения: в меру убраны шумы, повышена четкость и разрешение.
    Сравнения можно посмотреть под спойлером ниже.-

    MediaInfo

    General
    Unique ID : 247558680339677610301706121658864266807 (0xBA3E114AB071B1E88A9428289BA46E37)
    Complete name : C:\Torrent\Гранатовый браслет.1964.SATRip-AVC by Dmitrio7197\Гранатовый браслет.1964.SATRip-AVC by Dmitrio7197.mkv
    Format : Matroska
    Format version : Version 2
    File size : 1.48 GiB
    Duration : 1h 25mn
    Overall bit rate : 2 471 Kbps
    Encoded date : UTC 2015-09-27 10:17:39
    Writing application : mkvmerge v6.1.0 ('Old Devil') built on Mar 4 2013 09:10:42
    Writing library : libebml v1.3.0 + libmatroska v1.4.0
    Video
    ID : 1
    Format : AVC
    Format/Info : Advanced Video Codec
    Format profile : High@L4.1
    Format settings, CABAC : Yes
    Format settings, ReFrames : 8 frames
    Codec ID : V_MPEG4/ISO/AVC
    Duration : 1h 25mn
    Bit rate : 2 277 Kbps
    Width : 688 pixels
    Height : 328 pixels
    Display aspect ratio : 2.25:1
    Frame rate mode : Constant
    Frame rate : 25.000 fps
    Color space : YUV
    Chroma subsampling : 4:2:0
    Bit depth : 8 bits
    Scan type : Progressive
    Bits/(Pixel*Frame) : 0.404
    Stream size : 1.33 GiB (90%)
    Writing library : x264 core 130 r2273 b3065e6
    Encoding settings : cabac=1 / ref=8 / deblock=1:0:0 / analyse=0x3:0x113 / me=umh / subme=10 / psy=1 / psy_rd=1.00:0.00 / mixed_ref=1 / me_range=24 / chroma_me=1 / trellis=2 / 8x8dct=1 / cqm=0 / deadzone=21,11 / fast_pskip=1 / chroma_qp_offset=-2 / threads=6 / lookahead_threads=1 / sliced_threads=0 / nr=0 / decimate=0 / interlaced=0 / bluray_compat=0 / constrained_intra=0 / bframes=8 / b_pyramid=2 / b_adapt=1 / b_bias=0 / direct=3 / weightb=1 / open_gop=0 / weightp=2 / keyint=250 / keyint_min=25 / scenecut=40 / intra_refresh=0 / rc_lookahead=40 / rc=2pass / mbtree=1 / bitrate=2277 / ratetol=1.0 / qcomp=0.60 / qpmin=0 / qpmax=69 / qpstep=4 / cplxblur=20.0 / qblur=0.5 / ip_ratio=1.40 / aq=1:1.00
    Default : Yes
    Forced : No
    Audio
    ID : 2
    Format : AC-3
    Format/Info : Audio Coding 3
    Mode extension : CM (complete main)
    Format settings, Endianness : Big
    Codec ID : A_AC3
    Duration : 1h 25mn
    Bit rate mode : Constant
    Bit rate : 192 Kbps
    Channel(s) : 2 channels
    Channel positions : Front: L R
    Sampling rate : 48.0 KHz
    Bit depth : 16 bits
    Compression mode : Lossy
    Stream size : 118 MiB (8%)
    Default : Yes
    Forced : No

    Скриншоты

    -

    Сравнение

    Новое сравнение с DVDRip - http://perectracker.org/viewtopic.php?t=3479309
    Иное наполнение кадра.-OldRip vs NewRip-Звук на DVD ужасный, пропущенный Крупным планом через самый жесткий шумодав. Здесь звук хоть и с шипением, зато слушать можно.
    Скачать .torrent

    Скачать торрент-файл бесплатно и на максимальной скорости!

    Как скачивать? · Что такое торрент? · Рейтинг и ограничения

    !ВНИМАНИЕ!
    Сайт не распространяет и не хранит электронные версии произведений, а занимается лишь лишь предоставлением доступа к создаваемому пользователями каталогу ссылок на торрент-файлы, которые содержат только списки хеш-сумм, убедительная просьба с жалобами обращаться напрямую к пользователю. Файлы для обмена на трекере предоставлены пользователями сайта, и администрация не несёт ответственности за их содержание. Просьба не заливать файлы, защищенные авторскими правами, а также файлы нелегального содержания!


    _________________
    [Профиль] [ЛС]
    Показать сообщения:    
    Ответить на тему

    Текущее время: Сегодня, в 18:23

    Часовой пояс: GMT + 2



    Вы не можете начинать темы
    Вы не можете отвечать на сообщения
    Вы не можете редактировать свои сообщения
    Вы не можете удалять свои сообщения
    Вы не можете голосовать в опросах
    Вы не можете прикреплять файлы к сообщениям
    Вы не можете скачивать файлы