BitTorrentTracker PerecTracker.org
BitTorrentTracker PerecTracker.org
    
Регистрация  ·  Вход
 
 · 
Забыли пароль?

  • Моабитская тетрадь (Леонид Квинихидзе) [1968, биография, драма, военный, DVB-AVC]

    Ответить на тему
     
    Автор Сообщение

    Light

    Создавать темы 19-Авг-2015 00:17

           

    [Цитировать]

    Моабитская тетрадь
    Жанр: биография, драма, военный
    Год выпуска: 1968
    Продолжительность: 01:28:14
    Режиссёр: Леонид Квинихидзе
    В ролях: Пётр Чернов, Азгар Шакиров, Рафкат Бикчентаев, Айварс Богданович, Хавза Мингашудинова, Лаймонас Норейка, Анатолий Шведерский, Ильдар Хайрулин, Дмитрий Барков, Ильдус Валиев, Виктор Колпаков, Стяпонас Космаускас, Александр Михайлов, Аркадий Пышняк, Владимир Шальтис, Сергей Свистунов
    Описание: Фильм о татарском поэте Мусе Джалиле. Во время Любанской наступательной операции Великой Отечественной войны Джалиль, получив ранение, попадает в плен к немцам. В немецком концентрационном лагере он пытается организовать подпольную антифашистскую организацию, но в результате предательства со стороны недругов снова попадает в застенки — на этот раз в берлинскую тюрьму Моабит. Его приговаривают к смертной казни.
    В ожидании исполнения приговора Муса Джалиль пишет стихи, наполненные духом патриотизма и отваги. Моабитская тетрадь — это блокнот, в который он украдкой от тюремных надзирателей записывал свои стихи.
    Доп. информация: ремукс записи потока *.ts в *.mkv программой VideoReDo.
    Производство: Ленфильм
    Сценаристы: Владимир Григорьев, Эдгар Дубровский, Сергей Потепалов
    Оператор: Вячеслав Фастович
    Композитор: Владислав Успенский
    Художник: Александр Блэк
    Сэмпл: http://multi-up.com/1061244
    Качество видео: DVB
    Формат видео: MKV
    Видео: AVC (H264), 720x576@784x576 (4:3), анаморф, 25 fps, 2205 kbps
    Аудио: MP2, 256 kbps, 2 channels, 48 kHz

    MediaInfo

    ОбщееУникальный идентификатор : 305645538048330395139900846607614145127 (0xE5F1307D2525A9BF115DDD5B6A20F267)Полное имя : D:\Моабитская тетрадь.mkvФормат : MatroskaВерсия формата : Version 2Размер файла : 1,55 ГбайтПродолжительность : 1 ч. 28 м.Общий поток : 2511 Кбит/секПрограмма кодирования : Lavf52.64.2Библиотека кодирования : Lavf52.64.2
    ВидеоИдентификатор : 1Формат : AVCФормат/Информация : Advanced Video CodecПрофиль формата : Main@L3.0Параметр CABAC формата : ДаПараметр ReFrames формата : 4 кадраПараметр GOP формата : M=4, N=24Идентификатор кодека : V_MPEG4/ISO/AVCПродолжительность : 1 ч. 28 м.Битрейт : 2205 Кбит/секШирина : 720 пикселейВысота : 576 пикселейСоотношение сторон : 4:3Соотношение сторон в оригинале : 4:3Режим частоты кадров : ПостоянныйЧастота кадров : 25,000 кадров/секСтандарт вещания : PALЦветовое пространство : YUVСубдискретизация насыщенности : 4:2:0Битовая глубина : 8 битТип развёртки : MBAFFБит/(Пиксели*Кадры) : 0.213Размер потока : 1,36 Гбайт (88%)Default : ДаForced : НетОсновные цвета : BT.601 PALХарактеристики трансфера : BT.470 System B, BT.470 System GКоэффициенты матрицы : BT.601
    АудиоИдентификатор : 2Формат : MPEG AudioВерсия формата : Version 1Профиль формата : Layer 2Идентификатор кодека : A_MPEG/L2Идентификатор кодека/Подсказка : MP2Продолжительность : 1 ч. 28 м.Вид битрейта : ПостоянныйБитрейт : 256 Кбит/секКаналы : 2 каналаЧастота : 48,0 КГцМетод сжатия : С потерямиРазмер потока : 162 Мбайт (10%)Язык : EnglishDefault : ДаForced : Нет

    Скриншот c названием фильма

    Скриншоты

    Скачать .torrent

    Скачать торрент-файл бесплатно и на максимальной скорости!

    Как скачивать? · Что такое торрент? · Рейтинг и ограничения

    !ВНИМАНИЕ!
    Сайт не распространяет и не хранит электронные версии произведений, а занимается лишь лишь предоставлением доступа к создаваемому пользователями каталогу ссылок на торрент-файлы, которые содержат только списки хеш-сумм, убедительная просьба с жалобами обращаться напрямую к пользователю. Файлы для обмена на трекере предоставлены пользователями сайта, и администрация не несёт ответственности за их содержание. Просьба не заливать файлы, защищенные авторскими правами, а также файлы нелегального содержания!


    _________________
    [Профиль] [ЛС]
    Показать сообщения:    
    Ответить на тему

    Текущее время: Сегодня, в 00:25

    Часовой пояс: GMT + 2



    Вы не можете начинать темы
    Вы не можете отвечать на сообщения
    Вы не можете редактировать свои сообщения
    Вы не можете удалять свои сообщения
    Вы не можете голосовать в опросах
    Вы не можете прикреплять файлы к сообщениям
    Вы не можете скачивать файлы