BitTorrentTracker PerecTracker.org
BitTorrentTracker PerecTracker.org
    
Регистрация  ·  Вход
 
 · 
Забыли пароль?

  • Уикэнд в отеле Уолдорф / Week-End at the Waldorf (Роберт З. Леонард / Robert Z. Leonard) [1945, США, музыкальная комедия, DVDRip] VO (fiendover) + Original (ENG)

    Ответить на тему
     
    Автор Сообщение

    Columb

    Создавать темы 02-Июн-2013 15:21

           

    [Цитировать]

    Уикэнд в отеле Уолдорф / Week-End at the Waldorf-Страна: США
    Жанр: музыкальная комедия
    Год выпуска: 1945
    Продолжительность: 02:09:24
    Перевод: одноголосый закадровый - fiendover (Виктор Рутилов)
    Cубтитры: нет
    Оригинальная аудиодорожка: английская
    Режиссер: Роберт З. Леонард / Robert Z. Leonard
    В ролях:
    Джинджер Роджерс / Ginger Rogers ... Irene Malvern
    Лана Тернер / Lana Turner ... Bunny Smith
    Уолтер Пиджон / Walter Pidgeon ... Chip Collyer
    Ван Джонсон / Van Johnson ... Captain James Hollis
    Эдвард Арнольд / Edward Arnold ... Martin X. Edley
    Кинан Уинн / Keenan Wynn ... Oliver Webson
    Роберт Бенчли / Robert Benchley ... Randy Morton
    Филлис Такстер / Phyllis Thaxter ... Cynthia Drew
    Леон Эймс / Leon Ames ... Henry Burton
    Лина Ромей / Lina Romay ... Juanita
    Сэмюэл С. Хайндс / Samuel S. Hinds ... Mr. Jessup
    Портер Холл / Porter Hall ... Stevens
    Джордж Зукко / George Zucco ... Bey of Aribajan
    Майлс Мэндер / Miles Mander ... British Secretary
    Фрэнк Пулья / Frank Puglia ... Emile

    Описание: Добро пожаловать в шикарный нью-йоркский отель "Waldorf-Astoria"! Здесь вас ждет коктейль из романтики, гламура, комедии и драмы, и участвуют в этом только звезды. Действие римейка "Гранд Отеля" происходит в последние дни Второй мировой войны и сосредоточено на судьбах одинокой кинозвезды (Джинджер Роджерс), стенографистки (Лана Тернер), раненого пилота (Ван Джонсон), военного корреспондента (Уолтер Пиджон), дельца-пройдохи (Эдвард Арнольд) и ведущего колонки светской хроники (Роберт Бенчли). Жизнь свела их на два недолгих дня уик-энда.
    Большой бюджет полностью себя оправдал: фильм стал одним из самых больших хитов 1945 г

    Сэмпл: http://multi-up.com/871631
    Качество видео: DVDRip
    Формат видео: AVI
    Видео: 640x480 (1.33:1), 23.976 fps, XviD build 65 ~2024 kbps avg, 0.27 bit/pixel
    Аудио 1: 48 kHz, AC3 Dolby Digital, 2/0 (L,R) ch, ~192 kbps (русский одноголосый закадровый перевод) - fiendover
    Аудио 2: 48 kHz, AC3 Dolby Digital, 2/0 (L,R) ch, ~192 kbps (английская оригинальная звуковая дорожка)

    MediaInfo

    General
    Complete name : ... \Week-End at the Waldorf 1945 2.18\Week-End at the Waldorf 1945.avi
    Format : AVI
    Format/Info : Audio Video Interleave
    Format profile : OpenDML
    File size : 2.18 GiB
    Duration : 2h 9mn
    Overall bit rate : 2 415 Kbps
    Writing application : VirtualDubMod 1.5.10.3 | www.virtualdub-fr.org || (build 2550/release)
    Writing library : VirtualDubMod build 2550/release
    Video
    ID : 0
    Format : MPEG-4 Visual
    Format profile : Advanced Simple@L5
    Format settings, BVOP : 2
    Format settings, QPel : No
    Format settings, GMC : No warppoints
    Format settings, Matrix : Default (H.263)
    Codec ID : DX50
    Codec ID/Hint : DivX 5
    Duration : 2h 9mn
    Bit rate : 2 013 Kbps
    Width : 640 pixels
    Height : 480 pixels
    Display aspect ratio : 4:3
    Frame rate : 23.976 fps
    Color space : YUV
    Chroma subsampling : 4:2:0
    Bit depth : 8 bits
    Scan type : Progressive
    Compression mode : Lossy
    Bits/(Pixel*Frame) : 0.273
    Stream size : 1.82 GiB (83%)
    Writing library : XviD 65
    Audio #1
    ID : 1
    Format : AC-3
    Format/Info : Audio Coding 3
    Mode extension : CM (complete main)
    Format settings, Endianness : Big
    Codec ID : 2000
    Duration : 2h 9mn
    Bit rate mode : Constant
    Bit rate : 192 Kbps
    Channel(s) : 2 channels
    Channel positions : Front: L R
    Sampling rate : 48.0 KHz
    Bit depth : 16 bits
    Compression mode : Lossy
    Stream size : 178 MiB (8%)
    Alignment : Split accross interleaves
    Interleave, duration : 42 ms (1.00 video frame)
    Interleave, preload duration : 500 ms
    Audio #2
    ID : 2
    Format : AC-3
    Format/Info : Audio Coding 3
    Mode extension : CM (complete main)
    Format settings, Endianness : Big
    Codec ID : 2000
    Duration : 2h 9mn
    Bit rate mode : Constant
    Bit rate : 192 Kbps
    Channel(s) : 2 channels
    Channel positions : Front: L R
    Sampling rate : 48.0 KHz
    Bit depth : 16 bits
    Compression mode : Lossy
    Stream size : 178 MiB (8%)
    Alignment : Split accross interleaves
    Interleave, duration : 42 ms (1.00 video frame)
    Interleave, preload duration : 500 ms

    Скриншоты

    Скачать .torrent

    Скачать торрент-файл бесплатно и на максимальной скорости!

    Как скачивать? · Что такое торрент? · Рейтинг и ограничения

    !ВНИМАНИЕ!
    Сайт не распространяет и не хранит электронные версии произведений, а занимается лишь лишь предоставлением доступа к создаваемому пользователями каталогу ссылок на торрент-файлы, которые содержат только списки хеш-сумм, убедительная просьба с жалобами обращаться напрямую к пользователю. Файлы для обмена на трекере предоставлены пользователями сайта, и администрация не несёт ответственности за их содержание. Просьба не заливать файлы, защищенные авторскими правами, а также файлы нелегального содержания!

    [Профиль] [ЛС]
    Показать сообщения:    
    Ответить на тему

    Текущее время: Сегодня, в 04:07

    Часовой пояс: GMT + 2



    Вы не можете начинать темы
    Вы не можете отвечать на сообщения
    Вы не можете редактировать свои сообщения
    Вы не можете удалять свои сообщения
    Вы не можете голосовать в опросах
    Вы не можете прикреплять файлы к сообщениям
    Вы не можете скачивать файлы