BitTorrentTracker PerecTracker.org
BitTorrentTracker PerecTracker.org
    
Регистрация  ·  Вход
 
 · 
Забыли пароль?

  • [ATV3] Безумный Макс: Дорога ярости / Mad Max: Fury Road (Джордж Миллер / George Miller ) [2015, США, Боевик, фантастика, приключения, BDRip, HD (1080p)] DUB + Original + sub (rus, eng)

    Ответить на тему
     
    Автор Сообщение

    rechyn

    Создавать темы 16-Авг-2015 21:39

           

    [Цитировать]

    Безумный Макс: Дорога ярости / Mad Max: Fury Road
    «Какой чудесный день»
    8.152 / 10 8.40 / 10
    -Год выпуска: 2015
    Страна: США
    Жанр: Боевик, фантастика, приключения
    Продолжительность: 02:00:23
    Перевод: Дублированный (iTunes)
    Оригинальная аудиодорожка: Есть
    Cубтитры: Русские форсированные, Русские, Английские
    Режиссёр: Джордж Миллер
    Сценарий: Джордж Миллер, Брендан МакКарти, Ник Латурис
    Продюсер: Джордж Миллер, Даг Митчелл, П.Дж. Вотен
    Оператор: Джон Сил
    Композитор: Джанки Экс-Эл
    Художник: Колин Гибсон, Шира Хокман, Джасинта Леонг
    Монтаж: Маргарет Сиксел
    В ролях: Том Харди, Шарлиз Терон, Николас Холт, Хью Кияс-Бёрн, Райли Кио, Роузи Хантингтон-Уайтли, Зои Кравиц, Эбби Ли, Кортни Итон, Нэйтан Джонс
    Бюджет: $150 000 000
    Сборы в США: $152 604 976
    Сборы в мире: + $220 500 000 = $373 104 976
    Сборы в России: $12 530 859
    Мировая премьера: 7 мая 2015
    Премьера (РФ): 14 мая 2015, «Каро-Премьер»
    Релиз на DVD: 17 сентября 2015, «CP Дистрибуция»
    Релиз на Blu-Ray: 17 сентября 2015, «CP Дистрибуция»
    Описание: Преследуемый призраками беспокойного прошлого, Макс уверен, что лучший способ выжить — скитаться в одиночестве. Несмотря на это, он присоединяется к бунтарям, бегущим через всю пустыню на боевой фуре, под предводительством военачальника Фуриосы. Они пытаются сбежать из Цитадели, страдающей от тирании Несмертного Джо, у которого они забрали кое-что очень ценное. Разъярённый военачальник бросает все свои силы на погоню за мятежниками, ступая на дорогу войны — дорогу ярости.-Качество исходника: BDRemux (HDClub)
    Качество: BDRip
    Тип: HD (1080p)
    Контейнер: M4V
    Видео: H.264, 1920x800, 2.40:1, 9 500 Kbps, 23.976 fps
    Аудио 1: Русский/Дублированный (iTunes), AAC / 2.0 / 157 Kbps / 48.0 KHz
    Аудио 2: Английский/Оригинальная дорожка , AAC / 2.0 / 159 Kbps / 48.0 KHz
    Аудио 3: Русский/Дублированный (iTunes), AC-3 / 5.1 / 384 Kbps / 48.0 KHz
    Аудио 4: Английский/Оригинальная дорожка , AC-3 / 5.1 / 640 Kbps / 48.0 KHz
    Субтитры 1: Русские форсированные
    Субтитры 2: Русские полные
    Субтитры 3: Английские полные
    -

    iTunes Meta Tags

    Sort Name: Mad Max: Fury Road
    XID: Apple:vendor_id:2015-453406
    contentID: 990549112
    Copyright: © 2015 Warner Bros. Feature Productions Pty Limited. All rightsreserved.
    Screenwriters: Джордж Миллер, Брендан МакКарти, Ник Латурис
    Producers: Джордж Миллер, Даг Митчелл, П.Дж. Вотен
    Director: Джордж Миллер
    Cast: Том Харди, Шарлиз Терон, Николас Холт, Хью Кияс-Бёрн, Райли Кио, Роузи Хантингтон-Уайтли, Зои Кравиц, Эбби Ли, Кортни Итон, Нэйтан Джонс
    Studio: Warner Bros.
    Rating Annotation: Rated R for intense sequences of violence throughout, and for disturbing images.
    Rating: 11
    Long Description: Преследуемый призраками беспокойного прошлого, Макс уверен, что лучший способ выжить - скитаться в одиночестве. Несмотря на это, он присоединяется к бунтарям, бегущим через всю пустыню на боевой фуре, под предводительством военачальника Фуриосы.
    Они пытаются сбежать из Цитадели, страдающей от тирании Несмертного Джо, у которого они забрали кое-что очень ценное. Разъярённый военачальник бросает все свои силы на погоню за мятежниками, ступая на дорогу войны - дорогу ярости.
    Description: Преследуемый призраками беспокойного прошлого, Макс уверен, что лучший способ выжить - скитаться в одиночестве. Несмотря на это, он присоединяется к бунтарям, бегущим через всю пустыню на боевой фуре, под предводительством военачальника Фуриосы...
    Release Date: 2015-05-07T08:00:00Z
    Genre: Action & Adventure
    Artist: George Miller
    Name: Mad Max: Fury Road

    MediaInfo

    General
    Complete name                            : /Users/imac/HandBrake/Mad Max- Fury Road (1080p HD).m4v
    Format                                   : MPEG-4
    Codec ID                                 : M4V
    File size                                : 9.11 GiB
    Duration                                 : 2h 0mn
    Overall bit rate mode                    : Variable
    Overall bit rate                         : 10.8 Mbps
    Movie name                               : Mad Max: Fury Road
    Performer                                : George Miller
    Genre                                    : Action & Adventure
    Recorded date                            : UTC 2015-05-07 08:00:00
    Encoded date                             : UTC 2015-08-16 15:49:32
    Tagged date                              : UTC 2015-08-16 15:52:00
    Copyright                                : © 2015 Warner Bros. Feature Productions Pty Limited. All rightsreserved.
    Cover                                    : Yes
    sonm                                     : Mad Max: Fury Road
    desc                                     : Преследуемый призраками беспокойного прошлого, Макс уверен, что лучший способ выжить - скитаться в одиночестве. Несмотря на это, он присоединяется к бунтарям, бегущим через всю пустыню на боевой фуре, под предводительством военачальника Фуриосы...
    ldes                                     : Преследуемый призраками беспокойного прошлого, Макс уверен, что лучший способ выжить - скитаться в одиночестве. Несмотря на это, он присоединяется к бунтарям, бегущим через всю пустыню на боевой фуре, под предводительством военачальника Фуриосы. / Они пытаются сбежать из Цитадели, страдающей от тирании Несмертного Джо, у которого они забрали кое-что очень ценное. Разъярённый военачальник бросает все свои силы на погоню за мятежниками, ступая на дорогу войны - дорогу ярости.
    hdvd                                     : 2
    stik                                     : 9
    rtng                                     : 0
    cnID                                     : 990549112
    xid                                      : Apple:vendor_id:2015-453406
    iTunEXTC                                 : mpaa|R|400|Rated R for intense sequences of violence throughout, and for disturbing images.
    iTunMOVI                                 : <?xml version=\"1.0\" encoding=\"UTF-8\"?> / <!DOCTYPE plist PUBLIC \"-//Apple//DTD PLIST 1.0//EN\" \"http://anonym.to/?http://www.apple.com/DTDs/PropertyList-1.0.dtd\"> / <plist version=\"1.0\"> / <dict> /  <key>cast</key> /  <array> /   <dict> /    <key>name</key> /    <string>Том Харди</string> /   </dict> /   <dict> /    <key>name</key> /    <string>Шарлиз Терон</string> /   </dict> /   <dict> /    <key>name</key> /    <string>Николас Холт</string> /   </dict> /   <dict> /    <key>name</key> /    <string>Хью Кияс-Бёрн</string> /   </dict> /   <dict> /    <key>name</key> /    <string>Райли Кио</string> /   </dict> /   <dict> /    <key>name</key> /    <string>Роузи Хантингтон-Уайтли</string> /   </dict> /   <dict> /    <key>name</key> /    <string>Зои Кравиц</string> /   </dict> /   <dict> /    <key>name</key> /    <string>Эбби Ли</string> /   </dict> /   <dict> /    <key>name</key> /    <string>Кортни Итон</string> /   </dict> /   <dict> /    <key>name</key> /    <string>Нэйтан Джонс</string> /   </dict> /  </array> /  <key>directors</key> /  <array> /   <dict> /    <key>name</key> /    <string>Джордж Миллер</string> /   </dict> /  </array> /  <key>producers</key> /  <array> /   <dict> /    <key>name</key> /    <string>Джордж Миллер</string> /   </dict> /   <dict> /    <key>name</key> /    <string>Даг Митчелл</string> /   </dict> /   <dict> /    <key>name</key> /    <string>П.Дж. Вотен</string> /   </dict> /  </array> /  <key>screenwriters</key> /  <array> /   <dict> /    <key>name</key> /    <string>Джордж Миллер</string> /   </dict> /   <dict> /    <key>name</key> /    <string>Брендан МакКарти</string> /   </dict> /   <dict> /    <key>name</key> /    <string>Ник Латурис</string> /   </dict> /  </array> /  <key>studio</key> /  <string>Warner Bros.</string> / </dict> / </plist>
    Video #1
    ID                                       : 1
    Format                                   : AVC
    Format/Info                              : Advanced Video Codec
    Format profile                           : High@L4.0
    Format settings, CABAC                   : Yes
    Format settings, ReFrames                : 4 frames
    Codec ID                                 : avc1
    Codec ID/Info                            : Advanced Video Coding
    Duration                                 : 2h 0mn
    Bit rate mode                            : Variable
    Bit rate                                 : 9 500 Kbps
    Width                                    : 1 920 pixels
    Height                                   : 800 pixels
    Display aspect ratio                     : 2.40:1
    Frame rate mode                          : Variable
    Frame rate                               : 23.976 fps
    Minimum frame rate                       : 23.810 fps
    Maximum frame rate                       : 24.272 fps
    Color space                              : YUV
    Chroma subsampling                       : 4:2:0
    Bit depth                                : 8 bits
    Scan type                                : Progressive
    Bits/(Pixel*Frame)                       : 0.258
    Stream size                              : 7.98 GiB (88%)
    Writing library                          : x264 core 142 r2479 dd79a61
    Encoding settings                        : cabac=1 / ref=4 / deblock=1:-2:-2 / analyse=0x3:0x133 / me=umh / subme=10 / psy=1 / psy_rd=1.00:0.15 / mixed_ref=1 / me_range=32 / chroma_me=1 / trellis=2 / 8x8dct=1 / cqm=0 / deadzone=21,11 / fast_pskip=0 / chroma_qp_offset=-3 / threads=36 / lookahead_threads=6 / sliced_threads=0 / nr=0 / decimate=0 / interlaced=0 / bluray_compat=0 / constrained_intra=0 / bframes=16 / b_pyramid=2 / b_adapt=2 / b_bias=0 / direct=3 / weightb=1 / open_gop=0 / weightp=2 / keyint=240 / keyint_min=24 / scenecut=40 / intra_refresh=0 / rc_lookahead=60 / rc=2pass / mbtree=1 / bitrate=9500 / ratetol=1.0 / qcomp=0.70 / qpmin=0 / qpmax=69 / qpstep=4 / cplxblur=20.0 / qblur=0.5 / vbv_maxrate=25000 / vbv_bufsize=25000 / nal_hrd=none / filler=0 / ip_ratio=1.40 / aq=1:1.00
    Language                                 : English
    Encoded date                             : UTC 2015-08-16 15:49:32
    Tagged date                              : UTC 2015-08-16 15:49:58
    Color primaries                          : BT.709-5, BT.1361, IEC 61966-2-4, SMPTE RP177
    Transfer characteristics                 : BT.709-5, BT.1361
    Matrix coefficients                      : BT.709-5, BT.1361, IEC 61966-2-4 709, SMPTE RP177
    Video #2
    ID                                       : 10
    Format                                   : JPEG
    Codec ID                                 : jpeg
    Duration                                 : 2h 0mn
    Bit rate mode                            : Variable
    Bit rate                                 : 543 bps
    Width                                    : 640 pixels
    Height                                   : 266 pixels
    Display aspect ratio                     : 2.40:1
    Frame rate mode                          : Variable
    Frame rate                               : 0.002 fps
    Minimum frame rate                       : 0.001 fps
    Maximum frame rate                       : 0.004 fps
    Color space                              : YUV
    Chroma subsampling                       : 4:2:0
    Bit depth                                : 8 bits
    Compression mode                         : Lossy
    Bits/(Pixel*Frame)                       : 1.595
    Stream size                              : 431 KiB (0%)
    Language                                 : English
    Encoded date                             : UTC 2015-08-16 15:50:03
    Tagged date                              : UTC 2015-08-16 15:50:03
    Audio #1
    ID                                       : 2
    Format                                   : AAC
    Format/Info                              : Advanced Audio Codec
    Format profile                           : LC
    Codec ID                                 : 40
    Duration                                 : 2h 0mn
    Bit rate mode                            : Variable
    Bit rate                                 : 157 Kbps
    Maximum bit rate                         : 237 Kbps
    Channel(s)                               : 2 channels
    Channel positions                        : Front: L R
    Sampling rate                            : 48.0 KHz
    Compression mode                         : Lossy
    Stream size                              : 135 MiB (1%)
    Language                                 : Russian
    Encoded date                             : UTC 2015-08-16 15:49:32
    Tagged date                              : UTC 2015-08-16 15:49:58
    Audio #2
    ID                                       : 3
    Format                                   : AAC
    Format/Info                              : Advanced Audio Codec
    Format profile                           : LC
    Codec ID                                 : 40
    Duration                                 : 2h 0mn
    Bit rate mode                            : Variable
    Bit rate                                 : 159 Kbps
    Maximum bit rate                         : 243 Kbps
    Channel(s)                               : 2 channels
    Channel positions                        : Front: L R
    Sampling rate                            : 48.0 KHz
    Compression mode                         : Lossy
    Stream size                              : 137 MiB (1%)
    Language                                 : English
    Encoded date                             : UTC 2015-08-16 15:49:32
    Tagged date                              : UTC 2015-08-16 15:49:58
    Audio #3
    ID                                       : 4
    Format                                   : AC-3
    Format/Info                              : Audio Coding 3
    Mode extension                           : CM (complete main)
    Format settings, Endianness              : Big
    Codec ID                                 : ac-3
    Duration                                 : 2h 0mn
    Bit rate mode                            : Constant
    Bit rate                                 : 384 Kbps
    Channel(s)                               : 6 channels
    Channel positions                        : Front: L C R, Side: L R, LFE
    Sampling rate                            : 48.0 KHz
    Bit depth                                : 16 bits
    Compression mode                         : Lossy
    Stream size                              : 331 MiB (4%)
    Language                                 : Russian
    Encoded date                             : UTC 2015-08-16 15:49:32
    Tagged date                              : UTC 2015-08-16 15:49:38
    Audio #4
    ID                                       : 5
    Format                                   : AC-3
    Format/Info                              : Audio Coding 3
    Mode extension                           : CM (complete main)
    Format settings, Endianness              : Big
    Codec ID                                 : ac-3
    Duration                                 : 2h 0mn
    Bit rate mode                            : Constant
    Bit rate                                 : 640 Kbps
    Channel(s)                               : 6 channels
    Channel positions                        : Front: L C R, Side: L R, LFE
    Sampling rate                            : 48.0 KHz
    Bit depth                                : 16 bits
    Compression mode                         : Lossy
    Stream size                              : 551 MiB (6%)
    Language                                 : English
    Encoded date                             : UTC 2015-08-16 15:49:32
    Tagged date                              : UTC 2015-08-16 15:49:38
    Text #1
    ID                                       : 6
    Format                                   : Timed text
    Muxing mode                              : sbtl
    Codec ID                                 : tx3g
    Duration                                 : 1h 53mn
    Bit rate mode                            : Variable
    Bit rate                                 : 1 bps
    Stream size                              : 502 Bytes (0%)
    Language                                 : Russian
    Encoded date                             : UTC 2015-08-16 15:49:32
    Tagged date                              : UTC 2015-08-16 15:49:39
    Text #2
    ID                                       : 7
    Format                                   : Timed text
    Muxing mode                              : sbtl
    Codec ID                                 : tx3g
    Duration                                 : 1h 53mn
    Bit rate mode                            : Variable
    Bit rate                                 : 42 bps
    Stream size                              : 35.2 KiB (0%)
    Language                                 : Russian
    Encoded date                             : UTC 2015-08-16 15:49:32
    Tagged date                              : UTC 2015-08-16 15:49:39
    Text #3
    ID                                       : 8
    Format                                   : Timed text
    Muxing mode                              : sbtl
    Codec ID                                 : tx3g
    Duration                                 : 1h 51mn
    Bit rate mode                            : Variable
    Bit rate                                 : 28 bps
    Stream size                              : 23.1 KiB (0%)
    Language                                 : English
    Encoded date                             : UTC 2015-08-16 15:49:32
    Tagged date                              : UTC 2015-08-16 15:49:39
    Text #4
    ID                                       : 9
    Format                                   : Apple text
    Codec ID                                 : text
    Duration                                 : 2h 0mn
    Bit rate mode                            : Variable
    Bit rate                                 : 0 bps
    Stream size                              : 303 Bytes (0%)
    Language                                 : English
    Encoded date                             : UTC 2015-08-16 15:49:58
    Tagged date                              : UTC 2015-08-16 15:49:58
    Menu
    00:00:00.000                             : Chapter 1
    00:10:42.517                             : Chapter 2
    00:19:06.396                             : Chapter 3
    00:30:12.353                             : Chapter 4
    00:42:55.615                             : Chapter 5
    00:49:33.346                             : Chapter 6
    00:59:55.092                             : Chapter 7
    01:13:02.587                             : Chapter 8
    01:22:08.966                             : Chapter 9
    01:30:02.564                             : Chapter 10
    01:40:39.909                             : Chapter 11
    01:49:12.588                             : Chapter 12
    01:53:06.322                             : Chapter 13

    x264 лог

    x264 [info]: frame I:1042  Avg QP:18.20  size:191800
    x264 [info]: frame P:50696 Avg QP:21.67  size: 76222
    x264 [info]: frame B:121450 Avg QP:22.76  size: 37060
    x264 [info]: consecutive B-frames:  5.4% 10.4% 13.3% 34.1% 14.9% 14.9%  3.2%  1.3%  0.5%  0.3%  0.1%  0.5%  0.0%  0.1%  0.1%  0.2%  0.7%
    x264 [info]: mb I  I16..4: 18.0% 52.7% 29.3%
    x264 [info]: mb P  I16..4:  5.9% 25.4%  4.2%  P16..4: 37.0% 12.4%  8.2%  0.5%  0.2%    skip: 6.3%
    x264 [info]: mb B  I16..4:  1.1%  4.6%  1.0%  B16..8: 39.6% 10.0%  2.4%  direct: 9.8%  skip:31.5%  L0:41.2% L1:43.9% BI:14.8%
    x264 [info]: 8x8 transform intra:69.9% inter:55.7%
    x264 [info]: direct mvs  spatial:97.8% temporal:2.2%
    x264 [info]: coded y,uvDC,uvAC intra: 84.8% 78.1% 44.4% inter: 33.2% 31.8% 8.5%
    x264 [info]: i16 v,h,dc,p: 16% 16% 29% 38%
    x264 [info]: i8 v,h,dc,ddl,ddr,vr,hd,vl,hu:  8%  9% 13% 10% 12% 11% 12% 11% 13%
    x264 [info]: i4 v,h,dc,ddl,ddr,vr,hd,vl,hu: 11% 11% 10%  8% 12% 12% 13% 10% 14%
    x264 [info]: i8c dc,h,v,p: 43% 25% 18% 14%
    x264 [info]: Weighted P-Frames: Y:3.9% UV:2.3%
    x264 [info]: ref P L0: 53.4% 13.5% 22.4%  9.1%  1.5%  0.0%
    x264 [info]: ref B L0: 87.3% 10.3%  2.3%
    x264 [info]: ref B L1: 94.0%  6.0%
    x264 [info]: kb/s:9485.77

    Скриншоты

    -

    Релиз подготовлен для просмотра на Apple TV, iPad, iPhone, iPod Touch.
    Для просмотра данного релиза на компьютере с ОС Windows рекомендуется использовать VLC media player
    Скачать .torrent

    Скачать торрент-файл бесплатно и на максимальной скорости!

    Как скачивать? · Что такое торрент? · Рейтинг и ограничения

    !ВНИМАНИЕ!
    Сайт не распространяет и не хранит электронные версии произведений, а занимается лишь лишь предоставлением доступа к создаваемому пользователями каталогу ссылок на торрент-файлы, которые содержат только списки хеш-сумм, убедительная просьба с жалобами обращаться напрямую к пользователю. Файлы для обмена на трекере предоставлены пользователями сайта, и администрация не несёт ответственности за их содержание. Просьба не заливать файлы, защищенные авторскими правами, а также файлы нелегального содержания!


    _________________
    [Профиль] [ЛС]
    Показать сообщения:    
    Ответить на тему

    Текущее время: Сегодня, в 22:40

    Часовой пояс: GMT + 2



    Вы не можете начинать темы
    Вы не можете отвечать на сообщения
    Вы не можете редактировать свои сообщения
    Вы не можете удалять свои сообщения
    Вы не можете голосовать в опросах
    Вы не можете прикреплять файлы к сообщениям
    Вы не можете скачивать файлы