BitTorrentTracker PerecTracker.org
BitTorrentTracker PerecTracker.org
    
Регистрация  ·  Вход
 
 · 
Забыли пароль?

  • Дети как дети (Аян Шахмалиева) [1978, мелодрама, HDTVRip-AVC]

    Ответить на тему
     
    Автор Сообщение

    Light

    Создавать темы 16-Авг-2015 17:27

           

    [Цитировать]

    Дети как дети-Жанр: мелодрама
    Год выпуска: 1978
    Продолжительность: 01:09:03-Режиссёр: Аян Шахмалиева-В ролях:
    Никита Михайловский, Маргарита Сергеечева, Александр Калягин, Маргарита Терехова, Анатолий Кузнецов, Ада Роговцева, Любовь Соколова
    Описание:
    Игорь Владимирович и Вера разошлись несколько лет назад. У него новая семья: жена Таня и приемный сын Дима. А у Веры осталась дочь Оля. Однажды дети познакомились и подружились…-Сэмпл | Кинопоиск-Качество видео: HDTVRip-AVC / Deti.kak.deti.1978.HDTV.1080i.ts | kinozal.tv, спасибо daboen
    Формат видео: MKV
    Видео: x264 (High@L4.1); 768x576, Display aspect ratio 4:3, 25.000 fps, 2818 Kbps
    Аудио: AC-3; 16 bits 48 Khz; 2.0ch 192 Kbps; CBR
    MediaInfo

    -

    x264 log

    avs [info]: 768x576p 1:1 @ 25/1 fps (cfr)
    x264 [info]: using SAR=1/1
    x264 [info]: using cpu capabilities: MMX2 SSE2Fast SSSE3 SSE4.2
    x264 [info]: profile High, level 4.1
    x264 [info]: frame I:557 Avg QP:19.15 size: 55917
    x264 [info]: frame P:22711 Avg QP:21.14 size: 23968
    x264 [info]: frame B:80327 Avg QP:23.10 size: 11008
    x264 [info]: consecutive B-frames: 0.8% 1.5% 3.8% 50.0% 10.5% 20.2% 4.1% 8.4% 0.4% 0.3%
    x264 [info]: mb I I16..4: 2.4% 85.9% 11.7%
    x264 [info]: mb P I16..4: 0.2% 7.3% 0.7% P16..4: 36.1% 41.4% 14.0% 0.0% 0.0% skip: 0.4%
    x264 [info]: mb B I16..4: 0.0% 2.2% 0.0% B16..8: 42.4% 20.3% 3.0% direct:13.8% skip:18.3% L0:42.9% L1:45.0% BI:12.1%
    x264 [info]: 8x8 transform intra:92.4% inter:68.7%
    x264 [info]: direct mvs spatial:98.9% temporal:1.1%
    x264 [info]: coded y,uvDC,uvAC intra: 97.4% 71.9% 29.7% inter: 53.0% 38.0% 5.5%
    x264 [info]: i16 v,h,dc,p: 41% 18% 3% 38%
    x264 [info]: i8 v,h,dc,ddl,ddr,vr,hd,vl,hu: 10% 7% 5% 11% 14% 15% 13% 13% 12%
    x264 [info]: i4 v,h,dc,ddl,ddr,vr,hd,vl,hu: 15% 8% 2% 8% 15% 16% 13% 12% 11%
    x264 [info]: i8c dc,h,v,p: 35% 27% 22% 15%
    x264 [info]: Weighted P-Frames: Y:40.9% UV:14.1%
    x264 [info]: ref P L0: 35.5% 11.9% 14.1% 8.5% 6.2% 5.3% 4.1% 2.6% 2.2% 2.1% 1.8% 1.8% 1.6% 1.6% 0.7% 0.0%
    x264 [info]: ref B L0: 75.9% 8.9% 4.3% 2.6% 1.9% 1.6% 1.3% 0.8% 0.7% 0.7% 0.6% 0.5% 0.2%
    x264 [info]: ref B L1: 95.0% 5.0%
    x264 [info]: kb/s:2818.10
    x264 [total]: encoded 103595 frames, 10.84 fps, 2818.10 kb/s
    -General
    Unique ID : 254673870929790657098533609692579281472 (0xBF986745B99AF186B08B205AD9CCBA40)
    Complete name : Дети как дети.1978.mkv
    Format : Matroska
    Format version : Version 2
    File size : 1.45 GiB
    Duration : 1h 9mn
    Overall bit rate : 3 012 Kbps
    Movie name : «Дети как дети»
    Encoded date : UTC 2015-08-16 09:17:31
    Writing application : mkvmerge v5.8.0 ('No Sleep / Pillow') built on Sep 2 2012 15:37:04
    Writing library : libebml v1.2.3 + libmatroska v1.3.0
    Comment : HDTVRip-AVC
    Originally released : August 14th 2015
    Encoded by : george$t®
    Video
    ID : 1
    Format : AVC
    Format/Info : Advanced Video Codec
    Format profile : High@L4.1
    Format settings, CABAC : Yes
    Format settings, ReFrames : 14 frames
    Codec ID : V_MPEG4/ISO/AVC
    Duration : 1h 9mn
    Bit rate : 2 818 Kbps
    Width : 768 pixels
    Height : 576 pixels
    Display aspect ratio : 4:3
    Frame rate mode : Constant
    Frame rate : 25.000 fps
    Color space : YUV
    Chroma subsampling : 4:2:0
    Bit depth : 8 bits
    Scan type : Progressive
    Bits/(Pixel*Frame) : 0.255
    Stream size : 1.33 GiB (92%)
    Title : Дети как дети.1978
    Writing library : x264 core 146 r2538kMod 121396c
    Encoding settings : cabac=1 / ref=14 / deblock=1:-2:-1 / analyse=0x3:0x113 / me=umh / subme=11 / psy=1 / fade_compensate=0.00 / psy_rd=1.10:0.15 / mixed_ref=1 / me_range=32 / chroma_me=1 / trellis=2 / 8x8dct=1 / cqm=0 / deadzone=21,11 / fast_pskip=0 / chroma_qp_offset=-3 / threads=12 / lookahead_threads=2 / sliced_threads=0 / nr=0 / decimate=0 / interlaced=0 / bluray_compat=0 / constrained_intra=0 / fgo=0 / bframes=9 / b_pyramid=2 / b_adapt=2 / b_bias=0 / direct=3 / weightb=1 / open_gop=0 / weightp=2 / keyint=250 / keyint_min=25 / scenecut=40 / intra_refresh=0 / rc_lookahead=60 / rc=2pass / mbtree=1 / bitrate=2818 / ratetol=1.0 / qcomp=0.70 / qpmin=0 / qpmax=69 / qpstep=4 / cplxblur=20.0 / qblur=0.5 / vbv_maxrate=50000 / vbv_bufsize=62500 / nal_hrd=none / filler=0 / ip_ratio=1.25 / aq=1:0.40
    Language : Russian
    Default : Yes
    Forced : No
    Color primaries : BT.709
    Transfer characteristics : BT.709
    Matrix coefficients : BT.709
    Color range : Limited
    Audio
    ID : 2
    Format : AC-3
    Format/Info : Audio Coding 3
    Mode extension : CM (complete main)
    Format settings, Endianness : Big
    Codec ID : A_AC3
    Duration : 1h 9mn
    Bit rate mode : Constant
    Bit rate : 192 Kbps
    Channel(s) : 2 channels
    Channel positions : Front: L R
    Sampling rate : 48.0 KHz
    Bit depth : 16 bits
    Compression mode : Lossy
    Stream size : 94.8 MiB (6%)
    Title : AC-3; 16 bits 48 Khz; 2.0ch 192 Kbps; CBR
    Language : Russian
    Default : Yes
    Forced : No
    Скачать .torrent

    Скачать торрент-файл бесплатно и на максимальной скорости!

    Как скачивать? · Что такое торрент? · Рейтинг и ограничения

    !ВНИМАНИЕ!
    Сайт не распространяет и не хранит электронные версии произведений, а занимается лишь лишь предоставлением доступа к создаваемому пользователями каталогу ссылок на торрент-файлы, которые содержат только списки хеш-сумм, убедительная просьба с жалобами обращаться напрямую к пользователю. Файлы для обмена на трекере предоставлены пользователями сайта, и администрация не несёт ответственности за их содержание. Просьба не заливать файлы, защищенные авторскими правами, а также файлы нелегального содержания!


    _________________
    [Профиль] [ЛС]
    Показать сообщения:    
    Ответить на тему

    Текущее время: Сегодня, в 22:33

    Часовой пояс: GMT + 2



    Вы не можете начинать темы
    Вы не можете отвечать на сообщения
    Вы не можете редактировать свои сообщения
    Вы не можете удалять свои сообщения
    Вы не можете голосовать в опросах
    Вы не можете прикреплять файлы к сообщениям
    Вы не можете скачивать файлы