BitTorrentTracker PerecTracker.org
BitTorrentTracker PerecTracker.org
    
Регистрация  ·  Вход
 
 · 
Забыли пароль?

  • Скуби-Ду и KISS: Тайна рок-н-ролла / Scooby-Doo! And Kiss: Rock and Roll Mystery (Спайк Брандт / Spike Brandt, Тони Червоне / Tony Cervone) [2015, мультфильм, семейный, BDRip] DVO + Original Eng

    Ответить на тему
     
    Автор Сообщение

    rechyn

    Создавать темы 15-Авг-2015 12:03

           

    [Цитировать]

    Скуби-Ду и KISS: Тайна рок-н-ролла / Scooby-Doo! And Kiss: Rock and Roll Mystery-Год выпуска: 2015
    Выпущено: США
    Жанр: мультфильм, семейный
    Продолжительность: 01:18:42
    Перевод: Профессиональный (двухголосый, закадровый)
    + Оригинальная звуковая дорожка
    Субтитры: нет-Режиссер: Спайк Брандт / Spike Brandt, Тони Червоне / Tony Cervone
    В ролях: Тони Червоне, Минди Кон, Грэй Гриффин, Мэттью Лиллард, Док МакГи, Джейсон Мьюз, Дариус Ракер, Джин Симмонс, Эрик Сингер, Пол Стэнли
    О фильме: Приключения дога по имени Скуби-Ду и его друзей детективов продолжаются. Им предстоит раскрыть новую тайну. Главные герои побывают в мире рока, так как на этот раз одними из персонажей мультфильма станут участники легендарной группы Kiss. Конечно, в новом эпизоде не обойдется без загадок, мистики и забавных ситуаций.-Релиз:
    Автор: sociolog_melvas
    Качество: BDRip (источник: Shellters-bob / BDRemux / 1080p)
    Формат: AVI
    Видео: 704x400 (1.76:1), 23,976 fps, XviD build 65 ~1729 kbps avg, 0.32 bit/pixel
    Аудио #1: 48 kHz, AC3 Dolby Digital, 3/2 (L,C,R,l,r) + LFE ch, ~448.00 kbps avg rus
    Аудио #2: 48 kHz, AC3 Dolby Digital, 3/2 (L,C,R,l,r) + LFE ch, ~448.00 kbps avg eng
    Размер: 1486.51 Mb (1/3 DVD-R)
    Скачать: Семпл-

    Кадры из фильма


    -

    Mi

    Формат : AVI
    Формат/Информация : Audio Video Interleave
    Размер файла : 1,45 Гбайт
    Продолжительность : 1 ч. 18 м.
    Общий поток : 2640 Кбит/сек
    Название фильма : Скуби-Ду и KISS: Тайна рок-н-ролла / Scooby-Doo! And Kiss: Rock and Roll Mystery (2015) BDRip
    Режиссёр : sociolog_melvas
    Жанр : мультфильм, семейный
    Программа кодирования : VirtualDubMod 1.5.10.2 (build 2540/release)
    Примечание : 14.08.2015
    Видео
    Идентификатор : 0
    Формат : MPEG-4 Visual
    Профиль формата : Advanced Simple@L5
    Параметр BVOP формата : 1
    Параметр QPel формата : Нет
    Параметр GMC формата : Без точки перехода
    Параметр матрицы формата : Выборочная
    Идентификатор кодека : XVID
    Идентификатор кодека/Подсказка : XviD
    Продолжительность : 1 ч. 18 м.
    Битрейт : 1730 Кбит/сек
    Ширина : 704 пикселя
    Высота : 400 пикселей
    Соотношение сторон : 16:9
    Частота кадров : 23,976 кадра/сек
    Цветовое пространство : YUV
    Субдискретизация насыщенности : 4:2:0
    Битовая глубина : 8 бит
    Тип развёртки : Прогрессивная
    Метод сжатия : С потерями
    Бит/(Пиксели*Кадры) : 0.256
    Размер потока : 974 Мбайт (66%)
    Библиотека кодирования : XviD 65
    Аудио #1
    Идентификатор : 1
    Формат : AC-3
    Формат/Информация : Audio Coding 3
    Расширение режима : CM (complete main)
    Параметр Endianness формата : Big
    Идентификатор кодека : 2000
    Продолжительность : 1 ч. 18 м.
    Вид битрейта : Постоянный
    Битрейт : 448 Кбит/сек
    Каналы : 6 каналов
    Расположение каналов : Front: L C R, Side: L R, LFE
    Частота : 48,0 КГц
    Битовая глубина : 16 бит
    Метод сжатия : С потерями
    Размер потока : 252 Мбайт (17%)
    Выравнивание : Разделение по промежуткам
    Продолжительность промежутка : 42 мс. (1,00 видеокадр)
    Время предзагрузки промежутка : 500 мс.
    Аудио #2
    Идентификатор : 2
    Формат : AC-3
    Формат/Информация : Audio Coding 3
    Расширение режима : CM (complete main)
    Параметр Endianness формата : Big
    Идентификатор кодека : 2000
    Продолжительность : 1 ч. 18 м.
    Вид битрейта : Постоянный
    Битрейт : 448 Кбит/сек
    Каналы : 6 каналов
    Расположение каналов : Front: L C R, Side: L R, LFE
    Частота : 48,0 КГц
    Битовая глубина : 16 бит
    Метод сжатия : С потерями
    Размер потока : 252 Мбайт (17%)
    Выравнивание : Разделение по промежуткам
    Продолжительность промежутка : 42 мс. (1,00 видеокадр)
    Время предзагрузки промежутка : 500 мс.
    -

    _________________
    [Профиль] [ЛС]
    Показать сообщения:    
    Ответить на тему

    Текущее время: Сегодня, в 05:23

    Часовой пояс: GMT + 2



    Вы не можете начинать темы
    Вы не можете отвечать на сообщения
    Вы не можете редактировать свои сообщения
    Вы не можете удалять свои сообщения
    Вы не можете голосовать в опросах
    Вы не можете прикреплять файлы к сообщениям
    Вы не можете скачивать файлы