BitTorrentTracker PerecTracker.org
BitTorrentTracker PerecTracker.org
    
Регистрация  ·  Вход
 
 · 
Забыли пароль?

  • Золотой мальчик / Un ragazzo d\'oro (Пупи Авати / Pupi Avati) [2014, Италия, Драма, HDRip] MVO (Line)

    Ответить на тему
     
    Автор Сообщение

    Light

    Создавать темы 15-Авг-2015 07:51

           

    [Цитировать]

    Золотой мальчик / Un ragazzo d'oro
    Страна: Италия / Duea Film, Combo Produzioni, Rai Cinema
    Жанр: Драма
    Год выпуска: 2014
    Продолжительность: 01:35:25
    Перевод: Профессиональный (многоголосый закадровый) (Чистый звук)
    Cубтитры: нет
    Режиссер: Пупи Авати / Pupi Avati
    В ролях: Риккардо Скамарчио, Шэрон Стоун, Кристиана Капотонди, Джованна Ралли, Люсия Росси, Кристиан Стеллути, Освальдо Ружиери, Томмазо Раньо, Сандро Дори, Фабио Феррари
    Описание: Давиде Бьяс писал тексты для рекламного агентства, но его амбиции простирались гораздо дальше — он мечтал создать настоящее литературное произведение. Мечта воплотилась в реальность абсолютно невероятным способом. На похоронах отца он познакомился с красивой и загадочной Людовикой. Она попросила Давиде найти в компьютере отца черновик написанных им незадолго до смерти мемуаров, чтобы изъять кусок, связанный с ее именем. Ничего не обнаружив, Давиде решает под именем отца писать сам и выдавать Людовике текст частями…
    Доп. информация:
    Сэмпл: http://multi-up.com/1062568
    Качество видео: HDRip
    Формат видео: AVI
    Видео: XviD, 1980 kb/s, 720x304, 2,35:1, 24,000 кадра/сек
    Аудио: AC3, 192 kb/s (2 ch), 48,0 КГц

    MediaInfo

    Формат : AVI
    Формат/Информация : Audio Video Interleave
    Размер файла : 1,45 Гбайт
    Продолжительность : 1 ч. 35 м.
    Общий поток : 2181 Кбит/сек
    Название фильма : Zolotoy.Pacan.2014.P.HDRip.ELEKTRI4KA.uniongang.tv
    Программа кодирования : VirtualDubMod 1.5.10.3 | www.virtualdub-fr.org || (build 2550/release)
    Правообладатель : UNIONGANG&RUSTORRENTS
    Видео
    Идентификатор : 0
    Формат : MPEG-4 Visual
    Профиль формата : Advanced Simple@L5
    Параметр BVOP формата : 2
    Параметр QPel формата : Нет
    Параметр GMC формата : Без точки перехода
    Параметр матрицы формата : Default (MPEG)
    Идентификатор кодека : XVID
    Идентификатор кодека/Подсказка : XviD
    Продолжительность : 1 ч. 35 м.
    Битрейт : 1980 Кбит/сек
    Ширина : 720 пикселей
    Высота : 304 пикселя
    Соотношение сторон : 2,35:1
    Частота кадров : 24,000 кадра/сек
    Цветовое пространство : YUV
    Субдискретизация насыщенности : 4:2:0
    Битовая глубина : 8 бит
    Тип развёртки : Прогрессивная
    Метод сжатия : С потерями
    Бит/(Пиксели*Кадры) : 0.377
    Размер потока : 1,32 Гбайт (91%)
    Библиотека кодирования : XviD 1.2.1 (UTC 2008-12-04)
    Аудио
    Идентификатор : 1
    Формат : AC-3
    Формат/Информация : Audio Coding 3
    Расширение режима : CM (complete main)
    Параметр Endianness формата : Big
    Идентификатор кодека : 2000
    Продолжительность : 1 ч. 35 м.
    Вид битрейта : Постоянный
    Битрейт : 192 Кбит/сек
    Каналы : 2 канала
    Расположение каналов : Front: L R
    Частота : 48,0 КГц
    Битовая глубина : 16 бит
    Метод сжатия : С потерями
    Размер потока : 131 Мбайт (9%)
    Выравнивание : Разделение по промежуткам
    Продолжительность промежутка : 42 мс. (1,00 видеокадр)
    Время предзагрузки промежутка : 500 мс.

    Скриншот c названием фильма

    Скриншоты




    Скачать .torrent

    Скачать торрент-файл бесплатно и на максимальной скорости!

    Как скачивать? · Что такое торрент? · Рейтинг и ограничения

    !ВНИМАНИЕ!
    Сайт не распространяет и не хранит электронные версии произведений, а занимается лишь лишь предоставлением доступа к создаваемому пользователями каталогу ссылок на торрент-файлы, которые содержат только списки хеш-сумм, убедительная просьба с жалобами обращаться напрямую к пользователю. Файлы для обмена на трекере предоставлены пользователями сайта, и администрация не несёт ответственности за их содержание. Просьба не заливать файлы, защищенные авторскими правами, а также файлы нелегального содержания!


    _________________
    [Профиль] [ЛС]
    Показать сообщения:    
    Ответить на тему

    Текущее время: Сегодня, в 04:05

    Часовой пояс: GMT + 2



    Вы не можете начинать темы
    Вы не можете отвечать на сообщения
    Вы не можете редактировать свои сообщения
    Вы не можете удалять свои сообщения
    Вы не можете голосовать в опросах
    Вы не можете прикреплять файлы к сообщениям
    Вы не можете скачивать файлы