BitTorrentTracker PerecTracker.org
BitTorrentTracker PerecTracker.org
    
Регистрация  ·  Вход
 
 · 
Забыли пароль?

  • Любовь во время гражданской войны / L\'amour au temps de la guerre civile (Родриг Жан / Rodrigue Jean) [2014, Канада, драма, WEBRip] Sub Rus + Original Fre

    Ответить на тему
     
    Автор Сообщение

    Light

    Создавать темы 14-Авг-2015 23:27

           

    [Цитировать]

    Любовь во время гражданской войны / L'amour au temps de la guerre civile
    Страна: Канада
    Жанр: драма
    Год выпуска: 2014
    Продолжительность: 01:59:58
    Перевод: Субтитры
    Cубтитры: русские
    Оригинальная аудиодорожка: французский
    Режиссер: Родриг Жан / Rodrigue Jean
    В ролях: Александр Ландри, Ана Кристина Алва, Катрин-Одри Лашапель, Жан-Симон Ледюк, Simon Lefebvre, Эрик Робиду
    Описание: Алекс - молодой наркоман, который продает свое тело в Монреале. Он находится в окружении Бруно, Симона, Жанны, Эрика и Вельмы, все они попали в ту же спираль принуждения. Заложники общества потребления, они - падшие ангелы темного и бурного времени.

    Сэмпл: http://multi-up.com/1062452
    Качество видео: WEBRip
    Формат видео: AVI
    Видео: Xvid 704x384 23.976fps 1514kbps
    Аудио: MP3 48000Hz mono 192kbps
    Формат субтитров: softsub (SRT)
    Доп. информация о субтитрах: Antonio

    Фрагмент субтитров

    1
    00:00:34,508 --> 00:00:39,112
    ЛЮБОВЬ ВО ВРЕМЯ ГРАЖДАНСКОЙ ВОЙНЫ
    2
    00:04:08,039 --> 00:04:09,916
    Может, отлизать?
    3
    00:04:52,083 --> 00:04:55,127
    Подтянись.
    4
    00:05:02,719 --> 00:05:04,136
    Ты очень красивый.
    5
    00:05:05,597 --> 00:05:08,266
    Сними верх.
    6
    00:08:05,068 --> 00:08:08,112
    Купим ещё пять крэка?
    7
    00:08:11,491 --> 00:08:14,118
    И два кокса.
    8
    00:08:14,119 --> 00:08:15,549
    Что будем делать с этим?
    9
    00:08:32,637 --> 00:08:35,181
    А?
    10
    00:08:37,684 --> 00:08:39,985
    Ладно. Я ему позвоню.
    11
    00:08:39,986 --> 00:08:42,396
    Давай.
    12
    00:08:49,696 --> 00:08:52,823
    Да, это Алекс.
    13
    00:08:53,616 --> 00:08:56,619
    Где ты?
    14
    00:10:27,502 --> 00:10:29,587
    Бруно.
    15
    00:10:31,589 --> 00:10:34,175
    Помоги мне, пожалуйста.
    16
    00:10:44,537 --> 00:10:46,205
    Боже.
    17
    00:11:53,588 --> 00:11:55,681
    Ты - нечто.
    18
    00:11:59,295 --> 00:12:01,829
    Ты - нечто.
    19
    00:12:19,447 --> 00:12:22,283
    Минутку!
    20
    00:12:31,376 --> 00:12:34,954
    Ты должен за две ночи.
    21
    00:16:28,905 --> 00:16:30,656
    Алло?
    22
    00:16:30,657 --> 00:16:32,241
    Это Алекс.
    23
    00:16:32,450 --> 00:16:34,952
    Я тебя жду.
    24
    00:16:35,120 --> 00:16:37,579
    Я на углу...
    25
    00:16:37,580 --> 00:16:40,583
    Дорион и Ларивьер.

    MediaInfo

    General
    Complete name : D:\TORRENTS\L'amour au temps de la guerre civile\L'amour au temps de la guerre civile.avi
    Format : AVI
    Format/Info : Audio Video Interleave
    File size : 1.44 GiB
    Duration : 1h 59mn
    Overall bit rate : 1 716 Kbps
    Video
    ID : 0
    Format : MPEG-4 Visual
    Format profile : Advanced Simple@L5
    Format settings, BVOP : 2
    Format settings, QPel : No
    Format settings, GMC : No warppoints
    Format settings, Matrix : Default (H.263)
    Codec ID : XVID
    Codec ID/Hint : XviD
    Duration : 1h 59mn
    Bit rate : 1 515 Kbps
    Width : 704 pixels
    Height : 384 pixels
    Display aspect ratio : 1.85:1
    Frame rate : 23.976 fps
    Color space : YUV
    Chroma subsampling : 4:2:0
    Bit depth : 8 bits
    Scan type : Progressive
    Compression mode : Lossy
    Bits/(Pixel*Frame) : 0.234
    Stream size : 1.27 GiB (88%)
    Writing library : XviD 64
    Audio
    ID : 1
    Format : MPEG Audio
    Format version : Version 1
    Format profile : Layer 3
    Codec ID : 55
    Codec ID/Hint : MP3
    Duration : 1h 59mn
    Source duration : 1h 59mn
    Bit rate mode : Constant
    Bit rate : 192 Kbps
    Channel(s) : 1 channel
    Sampling rate : 48.0 KHz
    Compression mode : Lossy
    Stream size : 165 MiB (11%)
    Alignment : Aligned on interleaves
    Interleave, duration : 42 ms (1.00 video frame)
    Writing library : LAME3.99r
    Encoding settings : -m m -V 4 -q 3 -lowpass 20.5 -b 192

    Скриншот c названием фильма

    Скриншоты

    Скачать .torrent

    Скачать торрент-файл бесплатно и на максимальной скорости!

    Как скачивать? · Что такое торрент? · Рейтинг и ограничения

    !ВНИМАНИЕ!
    Сайт не распространяет и не хранит электронные версии произведений, а занимается лишь лишь предоставлением доступа к создаваемому пользователями каталогу ссылок на торрент-файлы, которые содержат только списки хеш-сумм, убедительная просьба с жалобами обращаться напрямую к пользователю. Файлы для обмена на трекере предоставлены пользователями сайта, и администрация не несёт ответственности за их содержание. Просьба не заливать файлы, защищенные авторскими правами, а также файлы нелегального содержания!


    _________________
    [Профиль] [ЛС]
    Показать сообщения:    
    Ответить на тему

    Текущее время: Сегодня, в 06:00

    Часовой пояс: GMT + 2



    Вы не можете начинать темы
    Вы не можете отвечать на сообщения
    Вы не можете редактировать свои сообщения
    Вы не можете удалять свои сообщения
    Вы не можете голосовать в опросах
    Вы не можете прикреплять файлы к сообщениям
    Вы не можете скачивать файлы