BitTorrentTracker PerecTracker.org
BitTorrentTracker PerecTracker.org
    
Регистрация  ·  Вход
 
 · 
Забыли пароль?

  • План побега / Escape Plan (Микаэль Хофстрём / Mikael Hafstrom) [2013, США, боевик, триллер, детектив, BDRip-AVC] Dub (BD RUS) + Original Eng + subs (Rus, Eng)

    Ответить на тему
     
    Автор Сообщение

    Light

    Создавать темы 14-Авг-2015 19:15

           

    [Цитировать]

    План побега / Escape Plan-Год выпуска: 2013
    Выпущено: США
    Жанр: боевик, триллер, детектив
    Продолжительность: 01:55:35
    Перевод: Профессиональный (полное дублирование) BD RUS
    + Оригинальная звуковая дорожка
    Субтитры: Русские, английские (srt*)-Режиссер: Микаэль Хофстрём / Mikael Hafstrom
    В ролях: Сильвестр Сталлоне, Арнольд Шварценеггер, Джеймс Кэвизел, Винни Джонс, Сэм Нил, Фаран Таир, Винсент Д’Онофрио, Эми Райан, Фифти Сент, Каитриона Бэлфи
    О фильме: Один из самых выдающихся мировых специалистов по системам безопасности соглашается на последнюю рисковую операцию: сбежать из суперсекретной высокотехнологичной тюрьмы, которую называют «Гробницей». Преданный Рэй Бреслин вынужден прибегнуть к помощи напарника — заключенного Эмиля Ротмайера, чтобы разработать отчаянный и практически неосуществимый план побега из самой защищенной тюрьмы в мире!-Релиз:
    Автор: Elheym
    Качество: BDRip (источник: / BD-Remux / 1080p)
    Формат: MKV
    Видео: 1024x432 (2.40:1), 23.976 fps, MPEG-4 AVC, ~2780 kbps avg, 0.262 bit/pixel
    Аудио #1: 48 kHz, AC3 Dolby Digital, 3/2 (L,C,R,l,r) + LFE ch, ~384.00 kbps avg rus
    Аудио #2: 48 kHz, AC3 Dolby Digital, 3/2 (L,C,R,l,r) + LFE ch, ~384.00 kbps avg eng
    Скачать: Семпл-

    Кадры из фильма


    -

    Mi

    Формат : Matroska
    Версия формата : Version 2
    Размер файла : 2,87 Гбайт
    Продолжительность : 1 ч. 55 м.
    Общий поток : 3550 Кбит/сек
    Дата кодирования : UTC 2014-06-13 13:06:46
    Программа кодирования : mkvmerge v5.2.0 ('I can't explain') built on Dec 18 2011 18:12:03
    Библиотека кодирования : libebml v1.2.3 + libmatroska v1.3.0
    Видео
    Идентификатор : 1
    Формат : AVC
    Формат/Информация : Advanced Video Codec
    Профиль формата : High@L4.1
    Параметр CABAC формата : Да
    Параметр ReFrames формата : 8 кадров
    Идентификатор кодека : V_MPEG4/ISO/AVC
    Продолжительность : 1 ч. 55 м.
    Битрейт : 2780 Кбит/сек
    Ширина : 1024 пикселя
    Высота : 432 пикселя
    Соотношение сторон : 2,40:1
    Режим частоты кадров : Постоянный
    Частота кадров : 23,976 кадра/сек
    Цветовое пространство : YUV
    Субдискретизация насыщенности : 4:2:0
    Битовая глубина : 8 бит
    Тип развёртки : Прогрессивная
    Бит/(Пиксели*Кадры) : 0.262
    Размер потока : 2,19 Гбайт (76%)
    Заголовок : План побега / Escape Plan (2013) BDRip-AVC by HQCLUB [Elheym]
    Библиотека кодирования : x264 core 142 r2431 ac76440
    Настройки программы : cabac=1 / ref=9 / deblock=1:-3:-3 / analyse=0x3:0x113 / me=tesa / subme=11 / psy=1 / psy_rd=1.00:0.00 / mixed_ref=1 / me_range=32 / chroma_me=1 / trellis=2 / 8x8dct=1 / cqm=0 / deadzone=21,11 / fast_pskip=1 / chroma_qp_offset=-4 / threads=6 / lookahead_threads=1 / sliced_threads=0 / nr=0 / decimate=1 / interlaced=0 / bluray_compat=0 / constrained_intra=0 / bframes=13 / b_pyramid=1 / b_adapt=2 / b_bias=0 / direct=3 / weightb=1 / open_gop=0 / weightp=2 / keyint=240 / keyint_min=23 / scenecut=40 / intra_refresh=0 / rc_lookahead=40 / rc=2pass / mbtree=1 / bitrate=2780 / ratetol=1.0 / qcomp=0.60 / qpmin=10 / qpmax=69 / qpstep=4 / cplxblur=20.0 / qblur=0.5 / vbv_maxrate=50000 / vbv_bufsize=62500 / nal_hrd=none / filler=0 / ip_ratio=1.40 / aq=1:1.00
    Язык : English
    Default : Да
    Forced : Да
    Аудио #1
    Идентификатор : 2
    Формат : AC-3
    Формат/Информация : Audio Coding 3
    Расширение режима : CM (complete main)
    Параметр Endianness формата : Big
    Идентификатор кодека : A_AC3
    Продолжительность : 1 ч. 55 м.
    Вид битрейта : Постоянный
    Битрейт : 384 Кбит/сек
    Каналы : 6 каналов
    Расположение каналов : Front: L C R, Side: L R, LFE
    Частота : 48,0 КГц
    Битовая глубина : 16 бит
    Метод сжатия : С потерями
    Размер потока : 317 Мбайт (11%)
    Заголовок : АС3, 5.1 @ ~384 kbps - Dub
    Язык : Russian
    Default : Нет
    Forced : Нет
    Аудио #2
    Идентификатор : 3
    Формат : AC-3
    Формат/Информация : Audio Coding 3
    Расширение режима : CM (complete main)
    Параметр Endianness формата : Big
    Идентификатор кодека : A_AC3
    Продолжительность : 1 ч. 55 м.
    Вид битрейта : Постоянный
    Битрейт : 384 Кбит/сек
    Каналы : 6 каналов
    Расположение каналов : Front: L C R, Side: L R, LFE
    Частота : 48,0 КГц
    Битовая глубина : 16 бит
    Метод сжатия : С потерями
    Размер потока : 317 Мбайт (11%)
    Заголовок : АС3, 5.1 @ ~384 kbps - Original
    Язык : English
    Default : Нет
    Forced : Нет
    Текст #1
    Идентификатор : 4
    Формат : UTF-8
    Идентификатор кодека : S_TEXT/UTF8
    Идентификатор кодека/Информация : UTF-8 Plain Text
    Заголовок : Full
    Язык : Russian
    Default : Нет
    Forced : Нет
    Текст #2
    Идентификатор : 5
    Формат : UTF-8
    Идентификатор кодека : S_TEXT/UTF8
    Идентификатор кодека/Информация : UTF-8 Plain Text
    Заголовок : Full
    Язык : English
    Default : Нет
    Forced : Нет
    Меню
    00:00:00.000 : :Chapter 01
    00:06:50.451 : :Chapter 02
    00:16:21.939 : :Chapter 03
    00:22:35.979 : :Chapter 04
    00:27:31.608 : :Chapter 05
    00:34:34.864 : :Chapter 06
    00:42:50.943 : :Chapter 07
    00:52:18.301 : :Chapter 08
    01:01:42.657 : :Chapter 09
    01:09:39.717 : :Chapter 10
    01:18:36.461 : :Chapter 11
    01:27:19.192 : :Chapter 12
    01:35:36.147 : :Chapter 13
    01:46:42.979 : :Chapter 14
    01:52:10.682 : :Chapter 15

    -

    x264 log

    x264 [info]: frame I:1602 Avg QP:11.86 size: 75361
    x264 [info]: frame P:39810 Avg QP:13.91 size: 28939
    x264 [info]: frame B:124881 Avg QP:15.53 size: 9107
    x264 [info]: consecutive B-frames: 4.1% 4.5% 11.6% 18.0% 17.7% 30.1% 4.9% 1.8% 2.0% 2.0% 0.9% 0.7% 0.7% 1.0%
    x264 [info]: ref P L0: 61.8% 10.1% 13.6% 5.4% 3.5% 2.4% 1.8% 1.2% 0.3% 0.0%
    x264 [info]: ref B L0: 83.6% 9.3% 3.7% 1.5% 0.9% 0.6% 0.3%
    x264 [info]: ref B L1: 92.2% 7.8%
    -
    Скачать .torrent

    Скачать торрент-файл бесплатно и на максимальной скорости!

    Как скачивать? · Что такое торрент? · Рейтинг и ограничения

    !ВНИМАНИЕ!
    Сайт не распространяет и не хранит электронные версии произведений, а занимается лишь лишь предоставлением доступа к создаваемому пользователями каталогу ссылок на торрент-файлы, которые содержат только списки хеш-сумм, убедительная просьба с жалобами обращаться напрямую к пользователю. Файлы для обмена на трекере предоставлены пользователями сайта, и администрация не несёт ответственности за их содержание. Просьба не заливать файлы, защищенные авторскими правами, а также файлы нелегального содержания!


    _________________
    [Профиль] [ЛС]
    Показать сообщения:    
    Ответить на тему

    Текущее время: Сегодня, в 09:53

    Часовой пояс: GMT + 2



    Вы не можете начинать темы
    Вы не можете отвечать на сообщения
    Вы не можете редактировать свои сообщения
    Вы не можете удалять свои сообщения
    Вы не можете голосовать в опросах
    Вы не можете прикреплять файлы к сообщениям
    Вы не можете скачивать файлы