Register  ·  Log in
Forgot password?

  • Темные тайны / Dark Places (Жиль Паке-Бреннер / Gilles Paquet-Brenner) [2015, Франция, Великобритания, США триллер, драма, детектив, WEB-DLRip] VO Doctor Joker

    Reply to topic
    Author Message


    Post 14-Aug-2015 16:03



    Темные тайны / Dark PlacesСтрана: Франция, Великобритания, США /Cuatro Plus Films, Exclusive Media Group
    Жанр: триллер, драма, детектив
    Год выпуска: 2015
    Продолжительность: 01:53:07
    Перевод: Одноголосый закадровый [Doctor Joker]
    Cубтитры: нет
    Режиссер: Жиль Паке-Бреннер / Gilles Paquet-Brenner
    В ролях: Шарлиз Терон, Клои Грэйс Моретц, Стерлинг Джеринс, Николас Холт, Кристина Хендрикс, Кори Столл, Тай Шеридан, Андреа Рот, Шон Бриджерс, Дж. ЛаРоуз
    Описание: Двадцать четыре года назад Либби Дэй пережила страшную трагедию : ночью убили ее мать и двух сестер, в преступлении признается виновным ее старший брат — Бэн Дэй, вина которого не была доказана полностью. Спустя время Либби Дэй решает возобновить расследование и узнать все, что произошло в ту роковую ночь. Готова ли она пережить этот кошмар вновь? На что она готова пойти ради правды? И какие ужасы хранят в себе эти темные тайны?

    Сэмпл: Смотреть
    Качество видео: WEB-DLRip
    Формат видео: AVI
    Видео: Xvid 720x304 23.976fps 1385kbps 2.35:1
    Аудио: Dolby AC3 48000Hz 6ch 384kbps


    Complete name : G:\Хранитель\Tyomn1e.m3sta.2015.A.WEB-DLRip.1400MB.avi
    Format : AVI
    Format/Info : Audio Video Interleave
    File size : 1.41 GiB
    Duration : 1h 53mn
    Overall bit rate : 1 778 Kbps
    Writing application : VirtualDubMod (build 2540/release)
    Writing library : VirtualDubMod build 2540/release
    ID : 0
    Format : MPEG-4 Visual
    Format profile : Advanced Simple@L5
    Format settings, BVOP : 2
    Format settings, QPel : No
    Format settings, GMC : No warppoints
    Format settings, Matrix : Default (H.263)
    Muxing mode : Packed bitstream
    Codec ID : XVID
    Codec ID/Hint : XviD
    Duration : 1h 53mn
    Bit rate : 1 385 Kbps
    Width : 720 pixels
    Height : 304 pixels
    Display aspect ratio : 2.35:1
    Frame rate : 23.976 fps
    Color space : YUV
    Chroma subsampling : 4:2:0
    Bit depth : 8 bits
    Scan type : Progressive
    Compression mode : Lossy
    Bits/(Pixel*Frame) : 0.264
    Stream size : 1.09 GiB (78%)
    Writing library : XviD 66
    ID : 1
    Format : AC-3
    Format/Info : Audio Coding 3
    Mode extension : CM (complete main)
    Format settings, Endianness : Big
    Codec ID : 2000
    Duration : 1h 53mn
    Bit rate mode : Constant
    Bit rate : 384 Kbps
    Channel(s) : 6 channels
    Channel positions : Front: L C R, Side: L R, LFE
    Sampling rate : 48.0 KHz
    Compression mode : Lossy
    Stream size : 311 MiB (22%)
    Alignment : Split accross interleaves
    Interleave, duration : 42 ms (1.00 video frame)
    Interleave, preload duratio : 500 ms

    Скриншот с названием фильма


    Внимание! Присутствует ненормативная лексика.
    Download .torrent

    Download free and at maximum speed!

    How to Download? · What is a torrent? · Ratings and Limitations

    The site does not extend and does not store electronic(digital) versions of products, and only gives access to a reference catalogue created by users on torrent-files which contain only lists of the hash-sums, the earnest entreaty, with complaints(abuse) to access directly to the user. Files for an exchange on tracker are given by users of a site, and the administration does not bear the responsibility for their maintenance. The request to not fill in the files protected by copyrights, and also files of the illegal maintenance!

    [Profile] [PM]
    Display posts from previous:    
    Reply to topic

    The time now is: Today 00:36

    All times are GMT + 3 Hours

    You cannot post new topics in this forum
    You cannot reply to topics in this forum
    You cannot edit your posts in this forum
    You cannot delete your posts in this forum
    You cannot vote in polls in this forum
    You cannot attach files in this forum
    You cannot download files in this forum