BitTorrentTracker PerecTracker.org
BitTorrentTracker PerecTracker.org
    
Регистрация  ·  Вход
 
 · 
Забыли пароль?

  • Черный коридор (Вадим Дербенев) [1988, драма, DVB]

    Ответить на тему
     
    Автор Сообщение

    Light

    Создавать темы 14-Авг-2015 06:39

           

    [Цитировать]

    Черный коридор
    Жанр: драма
    Год выпуска: 1988
    Продолжительность: 01:17:36
    Режиссёр: Вадим Дербенев
    В ролях: Иннокентий Смоктуновский, Владимир Ильин, Ион Унгуряну, Ольга Кабо, Константин Каретников, Сергей Гармаш, Раиса Куркина, Федор Стуков, Ирина Феофанова, Маша Морева, Женя Хайдуков, Инна Выходцева, Михаил Рогов, Алексей Веселкин, Павел Сиротин
    Описание: Учитель истории в день своего юбилея получает анонимное письмо, в котором его называют "очагом общественной заразы" и угрожают убийством. Страх и вопрос "за что?" напоминают ему о том, что почти забыто.
    Доп. информация: Запись потока *.ts со спутника EUTELSAT 36A/B, 36° в.д., ремукс в *.mpg программой VideoReDo.
    Качество видео: DVB
    Формат видео: MPEG-PS
    Видео: MPEG2 Video, 720(768)x576 (4:3), 25,000 кадров/сек, 2928 Кбит/сек
    Аудио: MPEG Audio, 48,0 КГц, 192 Кбит/сек, 2 канала

    MediaInfo

    Общее
    Полное имя : D:\MPG\ЧЁРНЫЙ КОРИДОР (Дом Кино).mpg
    Формат : MPEG-PS
    Размер файла : 1,73 Гбайт
    Продолжительность : 1 ч. 17 м.
    Режим общего битрейта : Переменный
    Общий поток : 3184 Кбит/сек
    Видео
    Идентификатор : 224 (0xE0)
    Формат : MPEG Video
    Версия формата : Version 2
    Профиль формата : Main@Main
    Параметр BVOP формата : Да
    Параметр матрицы формата : Выборочная
    Параметр GOP формата : Variable
    Продолжительность : 1 ч. 17 м.
    Вид битрейта : Переменный
    Битрейт : 2928 Кбит/сек
    Максимальный битрейт : 5000 Кбит/сек
    Ширина : 720 пикселей
    Высота : 576 пикселей
    Соотношение сторон : 4:3
    Частота кадров : 25,000 кадров/сек
    Стандарт вещания : PAL
    Цветовое пространство : YUV
    Субдискретизация насыщенности : 4:2:0
    Битовая глубина : 8 бит
    Тип развёртки : Чересстрочная
    Порядок развёртки : Верхнее поле первое
    Метод сжатия : С потерями
    Бит/(Пиксели*Кадры) : 0.282
    Временной код первого кадра : 00:00:00:00
    Оригинал временного кода : Group of pictures header
    Размер потока : 1,59 Гбайт (92%)
    Аудио
    Идентификатор : 192 (0xC0)
    Формат : MPEG Audio
    Версия формата : Version 1
    Профиль формата : Layer 2
    Продолжительность : 1 ч. 17 м.
    Вид битрейта : Постоянный
    Битрейт : 192 Кбит/сек
    Каналы : 2 канала
    Частота : 48,0 КГц
    Метод сжатия : С потерями
    Задержка видео : 16 мс.
    Размер потока : 107 Мбайт (6%)

    Скриншоты

    Скачать .torrent

    Скачать торрент-файл бесплатно и на максимальной скорости!

    Как скачивать? · Что такое торрент? · Рейтинг и ограничения

    !ВНИМАНИЕ!
    Сайт не распространяет и не хранит электронные версии произведений, а занимается лишь лишь предоставлением доступа к создаваемому пользователями каталогу ссылок на торрент-файлы, которые содержат только списки хеш-сумм, убедительная просьба с жалобами обращаться напрямую к пользователю. Файлы для обмена на трекере предоставлены пользователями сайта, и администрация не несёт ответственности за их содержание. Просьба не заливать файлы, защищенные авторскими правами, а также файлы нелегального содержания!


    _________________
    [Профиль] [ЛС]
    Показать сообщения:    
    Ответить на тему

    Текущее время: Сегодня, в 10:43

    Часовой пояс: GMT + 2



    Вы не можете начинать темы
    Вы не можете отвечать на сообщения
    Вы не можете редактировать свои сообщения
    Вы не можете удалять свои сообщения
    Вы не можете голосовать в опросах
    Вы не можете прикреплять файлы к сообщениям
    Вы не можете скачивать файлы