BitTorrentTracker PerecTracker.org
BitTorrentTracker PerecTracker.org
    
Регистрация  ·  Вход
 
 · 
Забыли пароль?

  • Возвращение Чёрного скакуна / The Black Stallion Returns (Роберт Далва / Robert Dalva) [1983, США, приключения, семейный, WEB-DL 720p] DVO (НТВ+) + Original Eng + Sub (Rus, Eng)

    Ответить на тему
     
    Автор Сообщение

    Flirldrerve

    Создавать темы 14-Авг-2015 02:27

           

    [Цитировать]

    Возвращение Чёрного скакуна / The Black Stallion Returns-Страна: США
    Студия: Zoetrope Studios | MGM
    Жанр: приключения, семейный
    Год выпуска: 1983
    Продолжительность: 01:42:58-Перевод: Профессиональный (двухголосый закадровый) НТВ+ (Перевод Юрия Сербина, текст читают Наталья Казначеева, Михаил Тихонов)
    Cубтитры: Русские, English
    Оригинальная аудиодорожка: английский-Режиссер: Роберт Далва / Robert Dalva
    В ролях: Келли Рено, Винсент Спано, Аллен Гарфилд, Вуди Строуд, Ферди Мэйн, Джоди Телен, Тери Гарр, Догми Ларби, Анджело Инфанти, Луиджи Меццанотте...- | Релиз: -Описание: Продолжение знаменитой истории о крепкой дружбе маленького мальчика и его самого большого сокровища — вороного скакуна по кличке Уголек.
    Чёрный — прославленный чемпион скачек, но для его владельца Алека, он — гораздо большее. Поэтому, когда таинственные иностранцы похищают прекрасное животное, для маленького мальчика это становится настоящей трагедией и он решает в одиночку отправиться на поиски своего друга.
    Прячась на борту самолета, летящего в Касабланку, пересекая опасные, безжизненные пески Сахары, Алек испытывает множество опасных приключений.
    Поиски, полные отчаяния и тревоги, открывают ему, наконец, все подробности похищения. Но теперь, чтобы вернуть своего любимца, ему предстоит пройти еще более тяжелые испытания.-Семпл: http://sendfile.su/1145644-Тип релиза: WEB-DL 720p
    Контейнер: MKV
    Видео: 1280x692 (1.850), 23.976 fps, AVC, ~3897 kbps, 0.183 bits/pixel
    Аудио 1: Русский, 48.0 KHz, AC3, 2 ch, 192 kbps - Двухголосый закадровый | НТВ+
    Аудио 2: English, 48.0 KHz, AC3, 6 ch, 384 kbps

    MediaInfo

    GeneralUnique ID : 237496821782256099646055765419313764839 (0xB2AC395D179BD8ACB927A854E72A99E7)Complete name : The.Black.Stallion.Returns.1983.720p.WEB-DL-rutracker.xfiles.mkvFormat : MatroskaFormat version : Version 4 / Version 2File size : 3.28 GiBDuration : 1h 42mnOverall bit rate : 4 564 KbpsMovie name : The.Black.Stallion.Returns.1983.720p.WEB-DL-rutracker.xfilesEncoded date : UTC 2015-08-13 18:43:12Writing application : mkvmerge v8.2.0 ('World of Adventure') 64bitWriting library : libebml v1.3.1 + libmatroska v1.4.2
    VideoID : 1Format : AVCFormat/Info : Advanced Video CodecFormat profile : High@L3.1Format settings, CABAC : NoFormat settings, ReFrames : 2 framesCodec ID : V_MPEG4/ISO/AVCDuration : 1h 42mnBit rate : 3 897 KbpsWidth : 1 280 pixelsHeight : 692 pixelsDisplay aspect ratio : 1.85:1Frame rate mode : ConstantFrame rate : 23.976 fpsColor space : YUVChroma subsampling : 4:2:0Bit depth : 8 bitsScan type : ProgressiveBits/(Pixel*Frame) : 0.183Stream size : 2.80 GiB (85%)Title : http://perectracker.org/viewtopic.php?t=5059734Language : EnglishDefault : YesForced : NoColor range : LimitedColor primaries : BT.709Transfer characteristics : BT.709Matrix coefficients : BT.709
    Audio #1ID : 2Format : AC-3Format/Info : Audio Coding 3Mode extension : CM (complete main)Format settings, Endianness : BigCodec ID : A_AC3Duration : 1h 42mnBit rate mode : ConstantBit rate : 192 KbpsChannel(s) : 2 channelsChannel positions : Front: L RSampling rate : 48.0 KHzCompression mode : LossyStream size : 141 MiB (4%)Title : Двухголосый закадровый | НТВ+ | Наталья Казначеева, Михаил ТихоновLanguage : RussianDefault : YesForced : No
    Audio #2ID : 3Format : AC-3Format/Info : Audio Coding 3Mode extension : CM (complete main)Format settings, Endianness : BigCodec ID : A_AC3Duration : 1h 42mnBit rate mode : ConstantBit rate : 384 KbpsChannel(s) : 6 channelsChannel positions : Front: L C R, Side: L R, LFESampling rate : 48.0 KHzCompression mode : LossyStream size : 283 MiB (8%)Language : EnglishDefault : NoForced : No
    Text #1ID : 4Format : UTF-8Codec ID : S_TEXT/UTF8Codec ID/Info : UTF-8 Plain TextLanguage : RussianDefault : NoForced : No
    Text #2ID : 5Format : UTF-8Codec ID : S_TEXT/UTF8Codec ID/Info : UTF-8 Plain TextLanguage : EnglishDefault : NoForced : No
    Menu00:00:00.000 : en:Chapter 100:11:32.000 : en:Chapter 200:22:53.000 : en:Chapter 300:31:37.000 : en:Chapter 400:44:38.000 : en:Chapter 500:54:49.000 : en:Chapter 601:04:57.000 : en:Chapter 701:17:31.000 : en:Chapter 801:32:50.000 : en:Chapter 9

    Скриншоты

    Скачать .torrent

    Скачать торрент-файл бесплатно и на максимальной скорости!

    Как скачивать? · Что такое торрент? · Рейтинг и ограничения

    !ВНИМАНИЕ!
    Сайт не распространяет и не хранит электронные версии произведений, а занимается лишь лишь предоставлением доступа к создаваемому пользователями каталогу ссылок на торрент-файлы, которые содержат только списки хеш-сумм, убедительная просьба с жалобами обращаться напрямую к пользователю. Файлы для обмена на трекере предоставлены пользователями сайта, и администрация не несёт ответственности за их содержание. Просьба не заливать файлы, защищенные авторскими правами, а также файлы нелегального содержания!


    _________________
    [Профиль] [ЛС]
    Показать сообщения:    
    Ответить на тему

    Текущее время: Сегодня, в 04:05

    Часовой пояс: GMT + 2



    Вы не можете начинать темы
    Вы не можете отвечать на сообщения
    Вы не можете редактировать свои сообщения
    Вы не можете удалять свои сообщения
    Вы не можете голосовать в опросах
    Вы не можете прикреплять файлы к сообщениям
    Вы не можете скачивать файлы