BitTorrentTracker PerecTracker.org
BitTorrentTracker PerecTracker.org
    
Регистрация  ·  Вход
 
 · 
Забыли пароль?

  • Эскорт / Девушка по вызову / The escort (Уилл Слокомб / Will Slocombe) [2015, США, комедия, мелодрама, WEB-DLRip] DVO (Lord32x)

    Ответить на тему
     
    Автор Сообщение

    rechyn

    Создавать темы 14-Авг-2015 02:27

           

    [Цитировать]

    Эскорт / Девушка по вызову / The escort
    Страна: США
    Жанр: комедия, мелодрама
    Год выпуска: 2015
    Продолжительность: 01:27:36
    Перевод: Любительский (двухголосый закадровый) Lord32x
    Cубтитры: нет
    Режиссер: Уилл Слокомб / Will Slocombe
    В ролях: Майкл Донегер, Линдси Фонсека, Томми Дьюи, Рейчел Решефф, Брюс Кемпбелл
    Описание: Молодой, амбициозный (и сексуально озабоченный) журналист пытается устроиться на работу в пафосный журнал. Для этого ему надо написать сенсационную статью, которая понравится редактору и привлечет внимание читателей. Помня золотое правило "пиши о том, что знаешь лучше всего", он решает подготовить материал о мире элитных эскорт-услуг. Осталось дело за малым: найти проститутку, которая согласится дать ему интервью.
    Доп. информация: Консервативно настроенные критики обвинили фильм в "гламуризации проституции". Это не совсем верно. Такими вещами занимался культовый сериал "Тайный дневник девушки по вызову". Данный фильм скорее позиционирует себя как пародию на либеральные идеи, представляющие проституцию как совершенно обычную профессию, давно ставшую нормой в современной цивилизации.
    Возрастной рейтинг: 18 +
    Перевод: М.Васильев
    Озвучка: Lord32xStudio
    Сэмпл


    Качество видео: WEB-DLRip
    Формат видео: AVI
    Видео: 2004 Kbps, 720x400 (16:9) 23 976 fps, XviD
    Аудио: 384 Kbps, 48.0 KHz, 16 bits, 6 ch, AC 3

    MediaInfo

    General
    Complete name : C:\Users\Владелец\Downloads\The.Escort.2015.WEB-DLRip.1500MB.avi
    Format : AVI
    Format/Info : Audio Video Interleave
    File size : 1.47 GiB
    Duration : 1h 27mn
    Overall bit rate : 2 397 Kbps
    Writing application : VirtualDubMod 1.5.10.3 | www.virtualdub-fr.org || (build 2550/release)
    Writing library : VirtualDubMod build 2550/release
    Video
    ID : 0
    Format : MPEG-4 Visual
    Format profile : Advanced Simple@L5
    Format settings, BVOP : 1
    Format settings, QPel : No
    Format settings, GMC : No warppoints
    Format settings, Matrix : Default (H.263)
    Codec ID : XVID
    Codec ID/Hint : XviD
    Duration : 1h 27mn
    Bit rate : 2 004 Kbps
    Width : 720 pixels
    Height : 400 pixels
    Display aspect ratio : 16:9
    Frame rate : 23.976 fps
    Color space : YUV
    Chroma subsampling : 4:2:0
    Bit depth : 8 bits
    Scan type : Progressive
    Compression mode : Lossy
    Bits/(Pixel*Frame) : 0.290
    Stream size : 1.23 GiB (84%)
    Writing library : XviD 1.2.1 (UTC 2008-12-04)
    Audio
    ID : 1
    Format : AC-3
    Format/Info : Audio Coding 3
    Mode extension : CM (complete main)
    Format settings, Endianness : Big
    Codec ID : 2000
    Duration : 1h 27mn
    Bit rate mode : Constant
    Bit rate : 384 Kbps
    Channel(s) : 6 channels
    Channel positions : Front: L C R, Side: L R, LFE
    Sampling rate : 48.0 KHz
    Bit depth : 16 bits
    Compression mode : Lossy
    Stream size : 241 MiB (16%)
    Alignment : Split accross interleaves
    Interleave, duration : 42 ms (1.00 video frame)
    Interleave, preload duration : 500 ms

    Скриншот c названием фильма

    Скриншоты





    Скачать .torrent

    Скачать торрент-файл бесплатно и на максимальной скорости!

    Как скачивать? · Что такое торрент? · Рейтинг и ограничения

    !ВНИМАНИЕ!
    Сайт не распространяет и не хранит электронные версии произведений, а занимается лишь лишь предоставлением доступа к создаваемому пользователями каталогу ссылок на торрент-файлы, которые содержат только списки хеш-сумм, убедительная просьба с жалобами обращаться напрямую к пользователю. Файлы для обмена на трекере предоставлены пользователями сайта, и администрация не несёт ответственности за их содержание. Просьба не заливать файлы, защищенные авторскими правами, а также файлы нелегального содержания!


    _________________
    [Профиль] [ЛС]
    Показать сообщения:    
    Ответить на тему

    Текущее время: Сегодня, в 14:21

    Часовой пояс: GMT + 2



    Вы не можете начинать темы
    Вы не можете отвечать на сообщения
    Вы не можете редактировать свои сообщения
    Вы не можете удалять свои сообщения
    Вы не можете голосовать в опросах
    Вы не можете прикреплять файлы к сообщениям
    Вы не можете скачивать файлы