Register  ·  Log in
Forgot password?

  • Виноваты звезды / The Fault in Our Stars (Джош Бун / Josh Boone) [2014, США, драма, мелодрама, BDRip] [Theatrical Cut] Dub

    Reply to topic
    Author Message


    Post 14-Aug-2015 03:27



    Виноваты звезды / The Fault in Our Stars / [Theatrical Cut]
    Страна: США
    Жанр: драма, мелодрама
    Год выпуска: 2014
    Продолжительность: 02:05:54
    Перевод: Профессиональный (дублированный)
    Cубтитры: нет
    Оригинальная аудиодорожка: нет
    Режиссер: Джош Бун / Josh Boone
    В ролях: Шейлин Вудли, Энсел Элгорт, Нат Вулф, Лора Дерн, Сэм Трэммелл, Уиллем Дефо, Лотте Вербеек, Ана Дела Крус, Рэнди Ковиц, Тони Саладна и др.
    Описание: Хэйзел больна раком. Несмотря на то, что болезнь временно отступила, девушка не чувствует ни капли радости. Она ходит в группу поддержки, где однажды знакомится с Огастусом Уотерсом и моментально влюбляется в него. Огастус и Хэйзел отправляются в полное страсти и жизни путешествие, которое лишний раз покажет им, что весь смысл жизни можно найти в любом ее отрезке.

    Качество видео: BDRip (источник: HDClub / Blu-ray / 1080p)
    Формат видео: AVI
    Автор рипа: sociolog_melvas
    Видео: 704x384 (1.83:1), 23,976 fps, XviD build 65 ~2027 kbps avg, 0.31 bit/pixel
    Аудио: 48 kHz, AC3 Dolby Digital, 3/2 (L,C,R,l,r) + LFE ch, ~448 kbps avg


    Complete name : D:\Видео\Фильмы\Vinovaty.zvezdy.2014.RUS.BDRip.XviD.AC3.-HQCLUB.avi
    Format : AVI
    Format/Info : Audio Video Interleave
    Format profile : OpenDML
    File size : 2.18 GiB
    Duration : 2h 5mn
    Overall bit rate : 2 482 Kbps
    Movie name : Виноваты звезды / The Fault in Our Stars [Theatrical Cut] (2014) BDRip
    Director : sociolog_melvas
    Genre : драма, мелодрама
    Writing application : VirtualDubMod (build 2540/release)
    Comment : 22.09.2014
    ID : 0
    Format : MPEG-4 Visual
    Format profile : Advanced Simple@L5
    Format settings, BVOP : 1
    Format settings, QPel : No
    Format settings, GMC : No warppoints
    Format settings, Matrix : Custom
    Codec ID : XVID
    Codec ID/Hint : XviD
    Duration : 2h 5mn
    Bit rate : 2 022 Kbps
    Width : 704 pixels
    Height : 384 pixels
    Display aspect ratio : 1.85:1
    Frame rate : 23.976 fps
    Color space : YUV
    Chroma subsampling : 4:2:0
    Bit depth : 8 bits
    Scan type : Progressive
    Compression mode : Lossy
    Bits/(Pixel*Frame) : 0.312
    Stream size : 1.78 GiB (81%)
    Writing library : XviD 65
    ID : 1
    Format : AC-3
    Format/Info : Audio Coding 3
    Mode extension : CM (complete main)
    Format settings, Endianness : Big
    Codec ID : 2000
    Duration : 2h 5mn
    Bit rate mode : Constant
    Bit rate : 448 Kbps
    Channel(s) : 6 channels
    Channel positions : Front: L C R, Side: L R, LFE
    Sampling rate : 48.0 KHz
    Compression mode : Lossy
    Stream size : 403 MiB (18%)
    Alignment : Split accross interleaves
    Interleave, duration : 42 ms (1.00 video frame)
    Interleave, preload duratio : 500 ms


    Download .torrent

    Download free and at maximum speed!

    How to Download? · What is a torrent? · Ratings and Limitations

    The site does not extend and does not store electronic(digital) versions of products, and only gives access to a reference catalogue created by users on torrent-files which contain only lists of the hash-sums, the earnest entreaty, with complaints(abuse) to access directly to the user. Files for an exchange on tracker are given by users of a site, and the administration does not bear the responsibility for their maintenance. The request to not fill in the files protected by copyrights, and also files of the illegal maintenance!

    [Profile] [PM]
    Display posts from previous:    
    Reply to topic

    The time now is: Today 10:01

    All times are GMT + 3 Hours

    You cannot post new topics in this forum
    You cannot reply to topics in this forum
    You cannot edit your posts in this forum
    You cannot delete your posts in this forum
    You cannot vote in polls in this forum
    You cannot attach files in this forum
    You cannot download files in this forum