Register  ·  Log in
Forgot password?

  • Нэйт и Маргарет / Nate and Margaret (Нэйтан Эдлофф / Nathan Adloff) [2012, США, драма, комедия, DVDRip] VO (Кошкин)

    Reply to topic
    Author Message


    Post 14-Aug-2015 03:27



    Нэйт и Маргарет / Nate and Margaret-Страна: США
    Жанр: драма, комедия
    Год выпуска: 2012
    Продолжительность: 01:19:40-Перевод: Одноголосый закадровый Василий Кошкин
    Cубтитры: нет-Режиссер: Нэйтан Эдлофф / Nathan Adloff
    В ролях: Натали Уэст, Тайлер Росс, Conor McCahill, Габи Хоффманн, Чарльз Соломон мл., Клифф Чемберлен-Описание: Нэйт учится на кинематографическом и пытается снять кино. Маргарет является 52-летней соседкой Нейта — пожилой, эксцентричной и с навязчивым коллекционированием чашек для кофе. Хотя их дружба может показаться маловероятной, Нейт и Маргарет имеют так много общего, что они быстро становятся неразлучными.-Сэмпл-Качество видео: DVDRip
    Формат видео: AVI
    Видео: 624x352 (1.77:1), 23.976 fps, XviD MPEG-4 ~1079 kbps avg, 0.20 bit/pixel
    Аудио: 48 kHz, AC3 Dolby Digital, 2/0 (L,R) ch, ~192 kbps


    Complete name : E:\Downloads\Nate.And.Margaret.VO.avi
    Format : AVI
    Format/Info : Audio Video Interleave
    File size : 730 MiB
    Duration : 1h 19mn
    Overall bit rate : 1 281 Kbps
    Writing application : VirtualDubMod (build 2540/release)
    Writing library : VirtualDubMod build 2540/release
    ID : 0
    Format : MPEG-4 Visual
    Format profile : Advanced Simple@L5
    Format settings, BVOP : 2
    Format settings, QPel : No
    Format settings, GMC : No warppoints
    Format settings, Matrix : Default (H.263)
    Muxing mode : Packed bitstream
    Codec ID : XVID
    Codec ID/Hint : XviD
    Duration : 1h 19mn
    Bit rate : 1 079 Kbps
    Width : 624 pixels
    Height : 352 pixels
    Display aspect ratio : 16:9
    Frame rate : 23.976 fps
    Color space : YUV
    Chroma subsampling : 4:2:0
    Bit depth : 8 bits
    Scan type : Progressive
    Compression mode : Lossy
    Bits/(Pixel*Frame) : 0.205
    Stream size : 615 MiB (84%)
    Writing library : XviD 64
    ID : 1
    Format : AC-3
    Format/Info : Audio Coding 3
    Mode extension : CM (complete main)
    Format settings, Endianness : Big
    Codec ID : 2000
    Duration : 1h 19mn
    Bit rate mode : Constant
    Bit rate : 192 Kbps
    Channel(s) : 2 channels
    Channel positions : Front: L R
    Sampling rate : 48.0 KHz
    Bit depth : 16 bits
    Compression mode : Lossy
    Stream size : 109 MiB (15%)
    Alignment : Split accross interleaves
    Interleave, duration : 42 ms (1.00 video frame)
    Interleave, preload duration : 500 ms

    Скриншот c названием фильма


    Download .torrent

    Download free and at maximum speed!

    How to Download? · What is a torrent? · Ratings and Limitations

    The site does not extend and does not store electronic(digital) versions of products, and only gives access to a reference catalogue created by users on torrent-files which contain only lists of the hash-sums, the earnest entreaty, with complaints(abuse) to access directly to the user. Files for an exchange on tracker are given by users of a site, and the administration does not bear the responsibility for their maintenance. The request to not fill in the files protected by copyrights, and also files of the illegal maintenance!

    [Profile] [PM]
    Display posts from previous:    
    Reply to topic

    The time now is: Today 03:35

    All times are GMT + 3 Hours

    You cannot post new topics in this forum
    You cannot reply to topics in this forum
    You cannot edit your posts in this forum
    You cannot delete your posts in this forum
    You cannot vote in polls in this forum
    You cannot attach files in this forum
    You cannot download files in this forum