BitTorrentTracker PerecTracker.org
BitTorrentTracker PerecTracker.org
    
Регистрация  ·  Вход
 
 · 
Забыли пароль?

  • Развод в большом городе / What Maisie Knew (Скотт МакГихи / Scott McGehee, Дэвид Сигел / David Siegel) [2012, США, Психологическая драма, HDRip] VO

    Ответить на тему
     
    Автор Сообщение

    Light

    Создавать темы 14-Авг-2015 02:27

           

    [Цитировать]

    Развод в большом городе / What Maisie Knew
    Страна: США
    Жанр: Психологическая драма
    Год выпуска: 2012
    Продолжительность: 01:38:55
    Перевод: Одноголосый закадровый
    Cубтитры: нет
    Оригинальная аудиодорожка: нет
    Режиссеры: Скотт МакГихи / Scott McGehee, Дэвид Сигел / David Siegel.
    В ролях: Оната Април, Александр Скарсгард,
    Джулианна Мур, Джоэнна Вандерхам, Стив Куган,
    Сэди Рэй, Джесси Стоун Спадаччини, Диана Гарсиа,
    Амелия Кэмпбелл, Мэдди Кормэн, и др.
    Описание: Как это часто бывает, мама и папа не сошлись характерами.
    Но пока они это выясняли, у них успел родиться ребёнок. Этот ребёнок
    успел подрости и пойти в начальную школу. Обычная девочка, обычный
    гадкий утёнок - как это часто бывает в таком возрасте... Расставшиеся
    родители ведут себя с дочерью так, что ей прямая дорога - стать гадкой
    лебедью во взрослой жизни. Однако девочка не поддаётся, и помощники
    ей нашлись - чтоб не поддаваться! Это один из бывших маминых мужей,
    а также бывшая няня, которая одновременно одна из бывших папиных жён...
    Качество видео: HDRip
    Формат видео: AVI
    Vidео: XviD, 688x288 (2.40:1), 23.976 fps, ~913 kbps avg, 0.192 bit/pixel
    Аudiо: МР3, 128 kbps (CBR), 2 ch (Joint stereo), 48.0 KHz (16 bits)

    MediaInfo

    ОбщееПолное имя : R:\What_Maisie_Knew_2012_HDRip_[perectracker.org].aviФормат : AVIФормат/Информация : Audio Video InterleaveРазмер файла : 744 МбайтПродолжительность : 1 ч. 38 м.Общий поток : 1051 Кбит/секПрограмма кодирования : VirtualDubModRus 1.5.10.2 (build 2542/release)Библиотека кодирования : VirtualDubMod build 2542/release
    ВидеоИдентификатор : 0Формат : MPEG-4 VisualПрофиль формата : Advanced Simple@L5Параметр BVOP формата : 1Параметр QPel формата : НетПараметр GMC формата : Без точки переходаПараметр матрицы формата : ВыборочнаяИдентификатор кодека : DX50Идентификатор кодека/Подсказка : DivX 5Продолжительность : 1 ч. 38 м.Битрейт : 913 Кбит/секШирина : 688 пикселейВысота : 288 пикселейСоотношение сторон : 2,40:1Частота кадров : 23,976 кадра/секЦветовое пространство : YUVСубдискретизация насыщенности : 4:2:0Битовая глубина : 8 битТип развёртки : ПрогрессивнаяМетод сжатия : С потерямиБит/(Пиксели*Кадры) : 0.192Размер потока : 646 Мбайт (87%)Библиотека кодирования : XviD 73
    АудиоИдентификатор : 1Формат : MPEG AudioВерсия формата : Version 1Профиль формата : Layer 3Режим : Joint stereoРасширение режима : MS StereoИдентификатор кодека : 55Идентификатор кодека/Подсказка : MP3Продолжительность : 1 ч. 38 м.Вид битрейта : ПостоянныйБитрейт : 128 Кбит/секКаналы : 2 каналаЧастота : 48,0 КГцМетод сжатия : С потерямиРазмер потока : 90,6 Мбайт (12%)Выравнивание : Соединение по промежуткамПродолжительность промежутка : 42 мс. (1,00 видеокадр)Время предзагрузки промежутка : 504 мс.

    Скриншот c названием фильма

    Скриншоты

    Раздача: По возможности!!!
    Скачать .torrent

    Скачать торрент-файл бесплатно и на максимальной скорости!

    Как скачивать? · Что такое торрент? · Рейтинг и ограничения

    !ВНИМАНИЕ!
    Сайт не распространяет и не хранит электронные версии произведений, а занимается лишь лишь предоставлением доступа к создаваемому пользователями каталогу ссылок на торрент-файлы, которые содержат только списки хеш-сумм, убедительная просьба с жалобами обращаться напрямую к пользователю. Файлы для обмена на трекере предоставлены пользователями сайта, и администрация не несёт ответственности за их содержание. Просьба не заливать файлы, защищенные авторскими правами, а также файлы нелегального содержания!


    _________________
    [Профиль] [ЛС]
    Показать сообщения:    
    Ответить на тему

    Текущее время: Сегодня, в 12:46

    Часовой пояс: GMT + 2



    Вы не можете начинать темы
    Вы не можете отвечать на сообщения
    Вы не можете редактировать свои сообщения
    Вы не можете удалять свои сообщения
    Вы не можете голосовать в опросах
    Вы не можете прикреплять файлы к сообщениям
    Вы не можете скачивать файлы