BitTorrentTracker PerecTracker.org
BitTorrentTracker PerecTracker.org
    
Регистрация  ·  Вход
 
 · 
Забыли пароль?

  • Крутой парень / Продвинутый / Новичок / The New Guy (Эд Дектер / Ed Decter) [2002, США, комедия, WEB-DL 720p] Dub (Видеосервис) + DVO (ТНТ) + DVO + AVO (Евгений Гранкин) + Sub Rus, Eng + Original Eng

    Ответить на тему
     
    Автор Сообщение

    Flirldrerve

    Создавать темы 13-Авг-2015 22:16

           

    [Цитировать]

    13.08.15 торрент перезалит. Двухголосый перевод и перевод Гранкина синхронизированы занова.-Крутой парень / The New Guy
    Страна: США
    Жанр: комедия
    Год выпуска: 2002
    Продолжительность: 01:28:34
    Перевод 1: Профессиональный (дублированный) Видеосервис
    Перевод 2: Профессиональный (двухголосый закадровый) ТНТ
    Перевод 3: Профессиональный (двухголосый закадровый)
    Перевод 4: Авторский (одноголосый закадровый) Евгений Гранкин
    Cубтитры: русские, английские
    Оригинальная аудиодорожка: английский
    Режиссер: Эд Дектер / Ed Decter
    В ролях: DJ Куаллс, Элиза Душку, Зои Дешанель, Джерод Миксон, Парри Шен, Лайл Лаветт, Эдди Гриффин, Санни Мабри, Росс Паттерсон, Мэтт Годжин...
    Описание: В обычной средней школе появляется новый парень — Гил Харрис. Он сам Мистер Популярность. Загадочный и очаровательный Гил без труда завоевывает сердца девушек.
    Однако у нового самого популярного парня в школе есть своя тайна. Еще совсем недавно его звали Диззи, он учился в другой школе и был там неудачником. Но как же малопривлекательный Диззи превратился с блистательного Гила, любимца всей школы? Просто Диззи захотел измениться.
    Один из парней, Лютер, рассказал ему несколько секретов, которые гарантировали Диззи популярность. Неукоснительно выполняя советы Лютера Диззи смог добиться успеха в новой школе. Однако новый парень нравится далеко не всем учащимся школы…
    Доп. информация: За исходник звука с переводом ТНТ спасибо Slim9174. Двухголосый перевод с раздачи Ruslik&$, перевод Гранкина с раздачи TgumanoidT, дубляж с DVD.
    Сэмпл: http://multi-up.com/1062404
    Тип релиза: WEB-DL 720p
    Контейнер: MKV
    Видео: 1280x718 (16:9), 23.976 fps, AVC, ~3888 Kbps, 0.176 bits/pixel
    Аудио 1: Russian, 48.0 KHz, AC3, 6 ch, 448 Kbps - Dub Видеосервис
    Аудио 2: Russian, 48.0 KHz, AC3, 1 ch, 192 Kbps - DVO ТНТ
    Аудио 3: Russian, 48.0 KHz, AC3, 2 ch, 192 Kbps - DVO
    Аудио 4: Russian, 48.0 KHz, AC3, 2 ch, 192 Kbps - AVO Евгений Гранкин
    Аудио 5: English, 48.0 KHz, AC3, 6 ch, 448 Kbps
    Формат субтитров: softsub (SRT)

    MediaInfo

    General
    Unique ID : 219414869321853147005225693983982056951 (0xA511C446EA3D01918D23B6CC470575F7)
    Complete name : C:\The New Guy. WEB-DL 720p.mkv
    Format : Matroska
    Format version : Version 4 / Version 2
    File size : 3.38 GiB
    Duration : 1h 28mn
    Overall bit rate : 5 463 Kbps
    Encoded date : UTC 2015-08-05 10:44:18
    Writing application : mkvmerge v8.1.0 ('Psychedelic Postcard') 64bit
    Writing library : libebml v1.3.1 + libmatroska v1.4.2
    DURATION : 01:28:33.984000000
    NUMBER_OF_FRAMES : 166062
    NUMBER_OF_BYTES : 297583104
    _STATISTICS_WRITING_APP : mkvmerge v8.1.0 ('Psychedelic Postcard') 64bit
    _STATISTICS_WRITING_DATE_UT : 2015-08-05 10:44:18
    _STATISTICS_TAGS : BPS DURATION NUMBER_OF_FRAMES NUMBER_OF_BYTES
    Video
    ID : 1
    Format : AVC
    Format/Info : Advanced Video Codec
    Format profile : High@L3.1
    Format settings, CABAC : No
    Format settings, ReFrames : 2 frames
    Codec ID : V_MPEG4/ISO/AVC
    Duration : 1h 28mn
    Bit rate : 3 882 Kbps
    Width : 1 280 pixels
    Height : 718 pixels
    Display aspect ratio : 16:9
    Frame rate mode : Constant
    Frame rate : 23.976 fps
    Color space : YUV
    Chroma subsampling : 4:2:0
    Bit depth : 8 bits
    Scan type : Progressive
    Bits/(Pixel*Frame) : 0.176
    Stream size : 2.40 GiB (71%)
    Language : English
    Default : Yes
    Forced : No
    Color range : Limited
    Color primaries : BT.709
    Transfer characteristics : BT.709
    Matrix coefficients : BT.709
    Audio #1
    ID : 2
    Format : AC-3
    Format/Info : Audio Coding 3
    Mode extension : CM (complete main)
    Format settings, Endianness : Big
    Codec ID : A_AC3
    Duration : 1h 28mn
    Bit rate mode : Constant
    Bit rate : 448 Kbps
    Channel(s) : 6 channels
    Channel positions : Front: L C R, Side: L R, LFE
    Sampling rate : 48.0 KHz
    Compression mode : Lossy
    Stream size : 284 MiB (8%)
    Title : Видеосервис
    Language : Russian
    Default : Yes
    Forced : No
    Audio #2
    ID : 3
    Format : AC-3
    Format/Info : Audio Coding 3
    Mode extension : CM (complete main)
    Format settings, Endianness : Big
    Codec ID : A_AC3
    Duration : 1h 28mn
    Bit rate mode : Constant
    Bit rate : 192 Kbps
    Channel(s) : 1 channel
    Channel positions : Front: C
    Sampling rate : 48.0 KHz
    Compression mode : Lossy
    Stream size : 122 MiB (4%)
    Title : ТНТ
    Language : Russian
    Default : No
    Forced : No
    Audio #3
    ID : 4
    Format : AC-3
    Format/Info : Audio Coding 3
    Mode extension : CM (complete main)
    Format settings, Endianness : Big
    Codec ID : A_AC3
    Duration : 1h 28mn
    Bit rate mode : Constant
    Bit rate : 192 Kbps
    Channel(s) : 2 channels
    Channel positions : Front: L R
    Sampling rate : 48.0 KHz
    Compression mode : Lossy
    Stream size : 122 MiB (4%)
    Language : Russian
    Default : No
    Forced : No
    Audio #4
    ID : 5
    Format : AC-3
    Format/Info : Audio Coding 3
    Mode extension : CM (complete main)
    Format settings, Endianness : Big
    Codec ID : A_AC3
    Duration : 1h 28mn
    Bit rate mode : Constant
    Bit rate : 192 Kbps
    Channel(s) : 2 channels
    Channel positions : Front: L R
    Sampling rate : 48.0 KHz
    Compression mode : Lossy
    Stream size : 122 MiB (4%)
    Title : Евгений Гранкин
    Language : Russian
    Default : No
    Forced : No
    Audio #5
    ID : 6
    Format : AC-3
    Format/Info : Audio Coding 3
    Mode extension : CM (complete main)
    Format settings, Endianness : Big
    Codec ID : A_AC3
    Duration : 1h 28mn
    Bit rate mode : Constant
    Bit rate : 448 Kbps
    Channel(s) : 6 channels
    Channel positions : Front: L C R, Side: L R, LFE
    Sampling rate : 48.0 KHz
    Compression mode : Lossy
    Stream size : 284 MiB (8%)
    Language : English
    Default : No
    Forced : No
    Text #1
    ID : 7
    Format : UTF-8
    Codec ID : S_TEXT/UTF8
    Codec ID/Info : UTF-8 Plain Text
    Language : Russian
    Default : No
    Forced : No
    Text #2
    ID : 8
    Format : UTF-8
    Codec ID : S_TEXT/UTF8
    Codec ID/Info : UTF-8 Plain Text
    Language : English
    Default : No
    Forced : No
    Menu
    00:00:00.000 : en:Start
    00:03:35.000 : en:First day, senior year
    00:06:21.000 : en:"MINE!"
    00:09:28.000 : en:Dizzy gets the spirit
    00:11:26.000 : en:A lesson in bad
    00:14:18.000 : en:Grounds for expulsion
    00:17:17.000 : en:Building toughness
    00:22:18.000 : en:Gil Harris
    00:24:47.000 : en:Biggest & baddest competition
    00:29:54.000 : en:Babe magnet
    00:34:20.000 : en:Grand entrance
    00:36:39.000 : en:"Gil blew me off."
    00:37:35.000 : en:Earth's most outrageous woman
    00:40:27.000 : en:Surrounded with love
    00:45:10.000 : en:Team spirit
    00:48:50.000 : en:Swimsuit shopping
    00:50:07.000 : en:Dropping his friends
    00:52:31.000 : en:A happy faculty
    00:55:55.000 : en:Ed Ligget
    00:58:48.000 : en:"Let It Whip"
    01:02:29.000 : en:Riding the bull
    01:05:59.000 : en:Dizzy William Wallace
    01:07:55.000 : en:Highlanders vs. Drillers
    01:11:29.000 : en:A very sore loser
    01:13:37.000 : en:Suburban Funk
    01:16:02.000 : en:The same guy
    01:18:54.000 : en:Something in common
    01:21:46.000 : en:Outtakes & Credits

    Скриншоты

    Скачать .torrent

    Скачать торрент-файл бесплатно и на максимальной скорости!

    Как скачивать? · Что такое торрент? · Рейтинг и ограничения

    !ВНИМАНИЕ!
    Сайт не распространяет и не хранит электронные версии произведений, а занимается лишь лишь предоставлением доступа к создаваемому пользователями каталогу ссылок на торрент-файлы, которые содержат только списки хеш-сумм, убедительная просьба с жалобами обращаться напрямую к пользователю. Файлы для обмена на трекере предоставлены пользователями сайта, и администрация не несёт ответственности за их содержание. Просьба не заливать файлы, защищенные авторскими правами, а также файлы нелегального содержания!


    _________________
    [Профиль] [ЛС]
    Показать сообщения:    
    Ответить на тему

    Текущее время: Сегодня, в 14:21

    Часовой пояс: GMT + 2



    Вы не можете начинать темы
    Вы не можете отвечать на сообщения
    Вы не можете редактировать свои сообщения
    Вы не можете удалять свои сообщения
    Вы не можете голосовать в опросах
    Вы не можете прикреплять файлы к сообщениям
    Вы не можете скачивать файлы