BitTorrentTracker PerecTracker.org
BitTorrentTracker PerecTracker.org
    
Регистрация  ·  Вход
 
 · 
Забыли пароль?

  • Остров сокровищ (3 серии) (Владимир Воробьев) [1982, приключения, DVDRip-AVC]

    Ответить на тему
     
    Автор Сообщение

    rechyn

    Создавать темы 13-Авг-2015 18:04

           

    [Цитировать]

    Остров сокровищ (3 серии)
    Жанр: приключения
    Год выпуска: 1982
    Студия: Ленфильм
    Продолжительность: 03:03:56 (00:57:01 01:05:43 01:01:12)
    Режиссёр: Владимир Воробьев
    В ролях: Федя Стуков, Олег Борисов, Виктор Костецкий, Владислав Стржельчик, Константин Григорьев, Леонид Марков, Георгий Тейх, Ольга Волкова, Валерий Золотухин, Николай Караченцов
    Описание: По одноименному роману Роберта Льюиса Стивенсона. Однажды в руки отважного мальчика Джима, мечтающего об опасных приключениях, попадает старинная морская карта. Она открывает путь к сокровищам капитана Флинта, которые зарыты на острове, затерянном в океане… Пираты по главе с Джоном Сильвером пытаются помешать Джиму и его друзьям найти сокровища. Но смелость, благородство и верность долгу помогают героям справиться со всеми выпавшими на их долю испытаниями…
    Сэмпл: http://sendfile.su/923075

    Качество видео: DVDRip-AVC
    Формат видео: MKV
    Видео: 720->768x576 (4:3), 25 fps, H264 ~ 1813 kbps avg, 0.175 bit/pixel
    Аудио: 48 kHz, Dolby AC3 5.1, 448 kbps

    Знаете ли Вы, что...

  • Начало фильма снимали на Куршской косе (Балтийское море), сам Остров сокровищ «размещен» в Новом свете, в Крыму, причем сцены, происходящие по сюжету в разных частях острова, снимались фактически на одном пятачке. Для городского пейзажа английского Бристоля найден неожиданный прототип — Петропавловская крепость в Санкт-Петербурге.
  • Существует три версии фильма. Первоначальный вариант имел продолжительность ориентировочно 220 минут. В 80-х годах он дважды подвергался цензуре. Из него были удалены сцены насилия, азартных игр, изображения мёртвых тел, особо страшные моменты.
  • MediaInfo

    Общее
    Полное имя : Ostrov.sokrovishh.1982.DVDRip-AVC_[New-team]_by_AVP_Studio3.mkv
    Формат : Matroska
    Версия формата : Version 2
    Размер файла : 991 Мбайт
    Продолжительность : 1 ч. 1 м.
    Общий поток : 2263 Кбит/сек
    Дата кодирования : UTC 2014-01-15 02:26:31
    Программа кодирования : mkvmerge v6.1.0 ('Old Devil') built on Mar 4 2013 09:10:42
    Библиотека кодирования : libebml v1.3.0 + libmatroska v1.4.0
    Видео
    Идентификатор : 1
    Формат : AVC
    Формат/Информация : Advanced Video Codec
    Профиль формата : High@L4.1
    Параметр CABAC формата : Да
    Параметр ReFrames формата : 8 кадров
    Идентификатор кодека : V_MPEG4/ISO/AVC
    Продолжительность : 1 ч. 1 м.
    Битрейт : 1813 Кбит/сек
    Ширина : 720 пикселей
    Высота : 576 пикселей
    Соотношение сторон : 4:3
    Режим частоты кадров : Постоянный
    Частота кадров : 25,000 кадров/сек
    Стандарт вещания : PAL
    Цветовое пространство : YUV
    Субдискретизация насыщенности : 4:2:0
    Битовая глубина : 8 бит
    Тип развёртки : Прогрессивная
    Бит/(Пиксели*Кадры) : 0.175
    Размер потока : 775 Мбайт (78%)
    Библиотека кодирования : x264 core 138 r2356 a1d3d17
    Настройки программы : cabac=1 / ref=8 / deblock=1:-2:-1 / analyse=0x3:0x113 / me=umh / subme=10 / psy=1 / psy_rd=1.00:0.05 / mixed_ref=1 / me_range=32 / chroma_me=1 / trellis=2 / 8x8dct=1 / cqm=0 / deadzone=21,11 / fast_pskip=0 / chroma_qp_offset=-3 / threads=3 / lookahead_threads=1 / sliced_threads=0 / nr=0 / decimate=0 / interlaced=0 / bluray_compat=0 / constrained_intra=0 / bframes=8 / b_pyramid=2 / b_adapt=2 / b_bias=0 / direct=3 / weightb=1 / open_gop=0 / weightp=2 / keyint=250 / keyint_min=25 / scenecut=40 / intra_refresh=0 / rc=2pass / mbtree=0 / bitrate=1813 / ratetol=1.0 / qcomp=0.60 / qpmin=0 / qpmax=69 / qpstep=4 / cplxblur=20.0 / qblur=0.5 / ip_ratio=1.40 / pb_ratio=1.30 / aq=1:1.00
    Default : Да
    Forced : Нет
    Аудио
    Идентификатор : 2
    Формат : AC-3
    Формат/Информация : Audio Coding 3
    Расширение режима : CM (complete main)
    Параметр Endianness формата : Big
    Идентификатор кодека : A_AC3
    Продолжительность : 1 ч. 1 м.
    Вид битрейта : Постоянный
    Битрейт : 448 Кбит/сек
    Каналы : 6 каналов
    Расположение каналов : Front: L C R, Side: L R, LFE
    Частота : 48,0 КГц
    Битовая глубина : 16 бит
    Метод сжатия : С потерями
    Размер потока : 196 Мбайт (20%)
    Default : Да
    Forced : Нет

    Скриншот c названием фильма

    Скриншоты


    Скачать .torrent

    Скачать торрент-файл бесплатно и на максимальной скорости!

    Как скачивать? · Что такое торрент? · Рейтинг и ограничения

    !ВНИМАНИЕ!
    Сайт не распространяет и не хранит электронные версии произведений, а занимается лишь лишь предоставлением доступа к создаваемому пользователями каталогу ссылок на торрент-файлы, которые содержат только списки хеш-сумм, убедительная просьба с жалобами обращаться напрямую к пользователю. Файлы для обмена на трекере предоставлены пользователями сайта, и администрация не несёт ответственности за их содержание. Просьба не заливать файлы, защищенные авторскими правами, а также файлы нелегального содержания!


    _________________
    [Профиль] [ЛС]

    -746

    Создавать темы 17-Янв-2016 23:32 (спустя 5 месяцев 4 дня)

           

    Топик был перенесен из форума Наше кино в форум Детские отечественные фильмы


    -sasha2006

    _________________
    Как бы ты высоко не летал, не забывай, с кем ты ползал..
     
    Показать сообщения:    
    Ответить на тему

    Текущее время: Сегодня, в 10:11

    Часовой пояс: GMT + 2



    Вы не можете начинать темы
    Вы не можете отвечать на сообщения
    Вы не можете редактировать свои сообщения
    Вы не можете удалять свои сообщения
    Вы не можете голосовать в опросах
    Вы не можете прикреплять файлы к сообщениям
    Вы не можете скачивать файлы