BitTorrentTracker PerecTracker.org
BitTorrentTracker PerecTracker.org
    
Регистрация  ·  Вход
 
 · 
Забыли пароль?

  • Хорошее убийство / Good Kill (Эндрю Никкол / Andrew Niccol) [2014, США, триллер, драма, BDRip 720p] MVO (iTunes) + Sub Eng + Original Eng

    Ответить на тему
     
    Автор Сообщение

    Flirldrerve

    Создавать темы 13-Авг-2015 18:04

           

    [Цитировать]

    Хорошее убийство / Good Kill
    Страна: США
    Студия: Voltage Pictures, Dune Films, Sobini Films
    Жанр: триллер, драма
    Год выпуска: 2014
    Продолжительность: 01:42:34
    Перевод: Профессиональный (многоголосый закадровый) iTunes
    Cубтитры: английские
    Оригинальная аудиодорожка: английский
    Режиссер: Эндрю Никкол / Andrew Niccol
    В ролях: Дженьюэри Джонс, Итан Хоук, Зои Кравиц, Джейк Эйбел, Брюс Гринвуд, Альма Сиснерос, Кристен Рейкс, Рич Чавез, Майкл Шитс, Билл Сьюард
    Описание: Действие фильма развернется вокруг летчика, управляющего беспилотным истребителем из Лос-Анджелеса. Каждый день он атакует талибов на другом конце земного шара, а по вечерам отправляется домой, где его ждут скандалы с женой и детьми. Устав от такой жизни, главный герой начинает сомневаться в правильности своей миссии. Ведь сколько бы террористов он не убил, им на смену приходят новые.

    Исходник: Good Kill 2014 1080p GER Blu-ray AVC DTS-HD MA 5.1-GMB
    Тип релиза: BDRip 720p -Сравнения-
    Контейнер: MKV
    Видео: MPEG-4 AVC, 6515 Кбит/с, 1280x536, 23,976 fps
    Аудио: Rus, AC3, 384 kb/s (6 ch), 48 kHz
    Аудио 2: Eng, AC3, 640 kb/s (6 ch), 48 kHz
    Формат субтитров: softsub (SRT)

    MediaInfo

    Format : Matroska
    Format version : Version 4 / Version 2
    File size : 5.41 GiB
    Duration : 1h 42mn
    Overall bit rate : 7 529 Kbps
    Movie name : Хорошее убийство. (Tonik)
    Encoded date : UTC 2015-08-10 20:17:06
    Writing application : mkvmerge v7.1.0 ('Good Love') 64bit built on Jul 27 2014 13:06:55
    Writing library : libebml v1.3.0 + libmatroska v1.4.1
    _STATISTICS_WRITING_APP : mkvmerge v7.1.0 ('Good Love') 64bit built on Jul 27 2014 13:06:55
    _STATISTICS_WRITING_DATE_UTC : 2015-08-10 20:17:06
    _STATISTICS_TAGS : BPS DURATION NUMBER_OF_FRAMES NUMBER_OF_BYTES
    DURATION : 01:42:50.752000000
    NUMBER_OF_FRAMES : 192836
    NUMBER_OF_BYTES : 296196096
    Video
    ID : 1
    Format : AVC
    Format/Info : Advanced Video Codec
    Format profile : High@L4.1
    Format settings, CABAC : Yes
    Format settings, ReFrames : 11 frames
    Codec ID : V_MPEG4/ISO/AVC
    Bit rate : 6 515 Kbps
    Width : 1 280 pixels
    Height : 536 pixels
    Display aspect ratio : 2.40:1
    Frame rate mode : Variable
    Original frame rate : 23.976 fps
    Color space : YUV
    Chroma subsampling : 4:2:0
    Bit depth : 8 bits
    Scan type : Progressive
    Bits/(Pixel*Frame) : 0.396
    Writing library : x264 core 146 r2538 121396c
    Encoding settings : cabac=1 / ref=12 / deblock=1:-3:-3 / analyse=0x3:0x113 / me=esa / subme=11 / psy=1 / psy_rd=1.05:0.03 / mixed_ref=1 / me_range=32 / chroma_me=1 / trellis=2 / 8x8dct=1 / cqm=0 / deadzone=21,11 / fast_pskip=0 / chroma_qp_offset=-3 / threads=6 / lookahead_threads=1 / sliced_threads=0 / nr=0 / decimate=1 / interlaced=0 / bluray_compat=0 / constrained_intra=0 / bframes=8 / b_pyramid=1 / b_adapt=2 / b_bias=0 / direct=3 / weightb=1 / open_gop=0 / weightp=2 / keyint=240 / keyint_min=23 / scenecut=40 / intra_refresh=0 / rc_lookahead=60 / rc=2pass / mbtree=1 / bitrate=6515 / ratetol=1.0 / qcomp=0.60 / qpmin=0 / qpmax=69 / qpstep=4 / cplxblur=20.0 / qblur=0.5 / vbv_maxrate=50000 / vbv_bufsize=62500 / nal_hrd=none / filler=0 / ip_ratio=1.40 / aq=1:0.95
    Language : English
    Default : Yes
    Forced : No
    Color primaries : BT.709
    Transfer characteristics : BT.709
    Matrix coefficients : BT.709
    Audio #1
    ID : 2
    Format : AC-3
    Format/Info : Audio Coding 3
    Mode extension : CM (complete main)
    Format settings, Endianness : Big
    Codec ID : A_AC3
    Duration : 1h 42mn
    Bit rate mode : Constant
    Bit rate : 384 Kbps
    Channel(s) : 6 channels
    Channel positions : Front: L C R, Side: L R, LFE
    Sampling rate : 48.0 KHz
    Bit depth : 16 bits
    Compression mode : Lossy
    Stream size : 283 MiB (5%)
    Language : Russian
    Default : Yes
    Forced : No
    Audio #2
    ID : 3
    Format : AC-3
    Format/Info : Audio Coding 3
    Mode extension : CM (complete main)
    Format settings, Endianness : Big
    Codec ID : A_AC3
    Duration : 1h 42mn
    Bit rate mode : Constant
    Bit rate : 640 Kbps
    Channel(s) : 6 channels
    Channel positions : Front: L C R, Side: L R, LFE
    Sampling rate : 48.0 KHz
    Bit depth : 16 bits
    Compression mode : Lossy
    Stream size : 471 MiB (9%)
    Language : English
    Default : No
    Forced : No
    Text
    ID : 4
    Format : UTF-8
    Codec ID : S_TEXT/UTF8
    Codec ID/Info : UTF-8 Plain Text
    Language : English
    Default : No
    Forced : No
    Menu
    00:00:00.000 : en:Chapter 01
    00:07:17.687 : en:Chapter 02
    00:16:47.256 : en:Chapter 03
    00:25:27.901 : en:Chapter 04
    00:35:40.763 : en:Chapter 05
    00:44:26.080 : en:Chapter 06
    00:51:23.789 : en:Chapter 07
    01:00:38.217 : en:Chapter 08
    01:12:20.878 : en:Chapter 09
    01:18:34.042 : en:Chapter 10
    01:27:27.867 : en:Chapter 11
    01:38:00.916 : en:Chapter 12

    Скриншоты

    Перекачайте, замена файла.
    Скачать .torrent

    Скачать торрент-файл бесплатно и на максимальной скорости!

    Как скачивать? · Что такое торрент? · Рейтинг и ограничения

    !ВНИМАНИЕ!
    Сайт не распространяет и не хранит электронные версии произведений, а занимается лишь лишь предоставлением доступа к создаваемому пользователями каталогу ссылок на торрент-файлы, которые содержат только списки хеш-сумм, убедительная просьба с жалобами обращаться напрямую к пользователю. Файлы для обмена на трекере предоставлены пользователями сайта, и администрация не несёт ответственности за их содержание. Просьба не заливать файлы, защищенные авторскими правами, а также файлы нелегального содержания!


    _________________
    [Профиль] [ЛС]
    Показать сообщения:    
    Ответить на тему

    Текущее время: Сегодня, в 18:28

    Часовой пояс: GMT + 2



    Вы не можете начинать темы
    Вы не можете отвечать на сообщения
    Вы не можете редактировать свои сообщения
    Вы не можете удалять свои сообщения
    Вы не можете голосовать в опросах
    Вы не можете прикреплять файлы к сообщениям
    Вы не можете скачивать файлы