BitTorrentTracker PerecTracker.org
BitTorrentTracker PerecTracker.org
    
Регистрация  ·  Вход
 
 · 
Забыли пароль?

  • Кливлендские пленницы / Cleveland Abduction (Алекс Кэлимнайос / Alex Kalymnios) [2015, США, Криминал, WEB-DL, HD (720p)] MVO + Original

    Ответить на тему
     
    Автор Сообщение

    rechyn

    Создавать темы 13-Авг-2015 18:04

           

    [Цитировать]

    Кливлендские пленницы / Cleveland Abduction
    -
    6.346 / 10 7.60 / 10
    -Год выпуска: 2015
    Страна: США
    Жанр: Криминал
    Продолжительность: 01:27:23
    Перевод: Многоголосый закадровый (iTunes)
    Оригинальная аудиодорожка: Есть
    Режиссёр: Алекс Кэлимнайос
    Сценарий: Стивен Толкин
    Продюсер: Дэвид А. Роземонт, Стивен Толкин, Дэвид Манзанарес
    Оператор: Ричард Вонг
    Композитор: Тони Моралес
    Художник: Дерек Р. Хилл, Шон Райан Дженнингс, Мэрлин Вэнс
    Монтаж: Хенк Ван Эген
    В ролях: Тэрин Мэннинг, Рэймонд Крус, Кэти Сариф, Саманта Дроук, Пэм Гриер, Джо Мортон, Джейн Моудер, Grace Ransom, Кристина Копф, Tammy Tsai
    Мировая премьера: 2 мая 2015
    Описание: Мать-одиночку, ставшую первой жертвой похитителя Ариеля Кастро, удерживают силой в его доме в течение 11 лет. Там она становится подругой и сестрой двум другим женщинам, похищенным Кастро.-Качество исходника: WEB-DL 720p (NNMClub)
    Качество: WEB-DL
    Тип: HD (720p)
    Контейнер: M4V
    Видео: H.264, 1280x720, 16:9, 3 827 Kbps, 23.976 fps
    Аудио 1: Русский/Многоголосый закадровый (iTunes), AAC / 2.0 / 155 Kbps / 48.0 KHz
    Аудио 2: Английский/Оригинальная дорожка , AAC / 2.0 / 152 Kbps / 44.1 KHz
    Аудио 3: Украинский/Многоголосый закадровый (iTunes), AAC / 2.0 / 154 Kbps / 44.1 KHz
    Аудио 4: Русский/Многоголосый закадровый (iTunes), AC-3 / 5.1 / 384 Kbps / 48.0 KHz
    -

    iTunes Meta Tags

    Sort Name: Cleveland Abduction
    XID: Apple:vendor_id:2015-867265
    contentID: 1015720408
    Screenwriters: Стивен Толкин
    Producers: Дэвид А. Роземонт, Стивен Толкин, Дэвид Манзанарес
    Director: Alex Kalymnios
    Cast: Тэрин Мэннинг, Рэймонд Крус, Кэти Сариф, Саманта Дроук, Пэм Гриер, Джо Мортон, Джейн Моудер, Grace Ransom, Кристина Копф, Tammy Tsai
    Studio: Sony Pictures Television
    Rating: 7
    Long Description: Мать-одиночку, ставшую первой жертвой похитителя Ариеля Кастро, удерживают силой в его доме в течение 11 лет. Там она становится подругой и сестрой двум другим женщинам, похищенным Кастро.
    Description: Мать-одиночку, ставшую первой жертвой похитителя Ариеля Кастро, удерживают силой в его доме в течение 11 лет. Там она становится подругой и сестрой двум другим женщинам, похищенным Кастро.
    Release Date: 2015-05-02T08:00:00Z
    Genre: Drama
    Artist: Alex Kalymnios
    Name: Cleveland Abduction

    MediaInfo

    General
    Complete name                            : /Users/imac/HandBrake/Cleveland.Abduction.WEB-DL.720p.m4v
    Format                                   : MPEG-4
    Codec ID                                 : M4V
    File size                                : 2.82 GiB
    Duration                                 : 1h 27mn
    Overall bit rate mode                    : Variable
    Overall bit rate                         : 4 628 Kbps
    Movie name                               : Cleveland Abduction
    Performer                                : Alex Kalymnios
    Genre                                    : Drama
    Recorded date                            : UTC 2015-05-02 08:00:00
    Encoded date                             : UTC 2015-08-13 11:23:16
    Tagged date                              : UTC 2015-08-13 11:26:49
    Cover                                    : Yes
    sonm                                     : Cleveland Abduction
    desc                                     : Мать-одиночку, ставшую первой жертвой похитителя Ариеля Кастро, удерживают силой в его доме в течение 11 лет. Там она становится подругой и сестрой двум другим женщинам, похищенным Кастро.
    ldes                                     : Мать-одиночку, ставшую первой жертвой похитителя Ариеля Кастро, удерживают силой в его доме в течение 11 лет. Там она становится подругой и сестрой двум другим женщинам, похищенным Кастро.
    hdvd                                     : 1
    stik                                     : 9
    rtng                                     : 0
    cnID                                     : 1015720408
    xid                                      : Apple:vendor_id:2015-867265
    iTunEXTC                                 : mpaa|NR|000|
    iTunMOVI                                 : <?xml version=\"1.0\" encoding=\"UTF-8\"?> / <!DOCTYPE plist PUBLIC \"-//Apple//DTD PLIST 1.0//EN\" \"http://anonym.to/?http://www.apple.com/DTDs/PropertyList-1.0.dtd\"> / <plist version=\"1.0\"> / <dict> /  <key>cast</key> /  <array> /   <dict> /    <key>name</key> /    <string>Тэрин Мэннинг</string> /   </dict> /   <dict> /    <key>name</key> /    <string>Рэймонд Крус</string> /   </dict> /   <dict> /    <key>name</key> /    <string>Кэти Сариф</string> /   </dict> /   <dict> /    <key>name</key> /    <string>Саманта Дроук</string> /   </dict> /   <dict> /    <key>name</key> /    <string>Пэм Гриер</string> /   </dict> /   <dict> /    <key>name</key> /    <string>Джо Мортон</string> /   </dict> /   <dict> /    <key>name</key> /    <string>Джейн Моудер</string> /   </dict> /   <dict> /    <key>name</key> /    <string>Grace Ransom</string> /   </dict> /   <dict> /    <key>name</key> /    <string>Кристина Копф</string> /   </dict> /   <dict> /    <key>name</key> /    <string>Tammy Tsai</string> /   </dict> /  </array> /  <key>directors</key> /  <array> /   <dict> /    <key>name</key> /    <string>Alex Kalymnios</string> /   </dict> /  </array> /  <key>producers</key> /  <array> /   <dict> /    <key>name</key> /    <string>Дэвид А. Роземонт</string> /   </dict> /   <dict> /    <key>name</key> /    <string>Стивен Толкин</string> /   </dict> /   <dict> /    <key>name</key> /    <string>Дэвид Манзанарес</string> /   </dict> /  </array> /  <key>screenwriters</key> /  <array> /   <dict> /    <key>name</key> /    <string>Стивен Толкин</string> /   </dict> /  </array> /  <key>studio</key> /  <string>Sony Pictures Television</string> / </dict> / </plist>
    Video #1
    ID                                       : 1
    Format                                   : AVC
    Format/Info                              : Advanced Video Codec
    Format profile                           : High@L4.1
    Format settings, CABAC                   : Yes
    Format settings, ReFrames                : 4 frames
    Codec ID                                 : avc1
    Codec ID/Info                            : Advanced Video Coding
    Duration                                 : 1h 27mn
    Bit rate mode                            : Variable
    Bit rate                                 : 3 827 Kbps
    Width                                    : 1 280 pixels
    Height                                   : 720 pixels
    Display aspect ratio                     : 16:9
    Frame rate mode                          : Constant
    Frame rate                               : 23.976 fps
    Color space                              : YUV
    Chroma subsampling                       : 4:2:0
    Bit depth                                : 8 bits
    Scan type                                : Progressive
    Bits/(Pixel*Frame)                       : 0.173
    Stream size                              : 2.30 GiB (82%)
    Writing library                          : x264 core 130 r2273 b3065e6
    Encoding settings                        : cabac=1 / ref=1 / deblock=1:0:0 / analyse=0x3:0x113 / me=hex / subme=2 / psy=1 / psy_rd=1.00:0.00 / mixed_ref=0 / me_range=16 / chroma_me=1 / trellis=0 / 8x8dct=1 / cqm=0 / deadzone=21,11 / fast_pskip=1 / chroma_qp_offset=0 / threads=6 / lookahead_threads=2 / sliced_threads=0 / nr=0 / decimate=1 / interlaced=0 / bluray_compat=0 / constrained_intra=0 / bframes=3 / b_pyramid=2 / b_adapt=1 / b_bias=0 / direct=1 / weightb=1 / open_gop=0 / weightp=1 / keyint=240 / keyint_min=24 / scenecut=40 / intra_refresh=0 / rc_lookahead=10 / rc=abr / mbtree=1 / bitrate=3827 / ratetol=1.0 / qcomp=0.60 / qpmin=0 / qpmax=69 / qpstep=4 / vbv_maxrate=62500 / vbv_bufsize=78125 / nal_hrd=none / ip_ratio=1.40 / aq=1:1.00
    Language                                 : English
    Encoded date                             : UTC 2015-08-13 11:23:16
    Tagged date                              : UTC 2015-08-13 11:23:26
    Color primaries                          : BT.709-5, BT.1361, IEC 61966-2-4, SMPTE RP177
    Transfer characteristics                 : BT.709-5, BT.1361
    Matrix coefficients                      : BT.709-5, BT.1361, IEC 61966-2-4 709, SMPTE RP177
    Video #2
    ID                                       : 7
    Format                                   : JPEG
    Codec ID                                 : jpeg
    Duration                                 : 1h 27mn
    Bit rate mode                            : Variable
    Bit rate                                 : 814 bps
    Width                                    : 640 pixels
    Height                                   : 360 pixels
    Display aspect ratio                     : 16:9
    Frame rate mode                          : Variable
    Frame rate                               : 0.003 fps
    Minimum frame rate                       : 0.002 fps
    Maximum frame rate                       : 0.004 fps
    Color space                              : YUV
    Chroma subsampling                       : 4:2:0
    Bit depth                                : 8 bits
    Compression mode                         : Lossy
    Bits/(Pixel*Frame)                       : 1.178
    Stream size                              : 530 KiB (0%)
    Language                                 : English
    Encoded date                             : UTC 2015-08-13 11:24:45
    Tagged date                              : UTC 2015-08-13 11:24:46
    Audio #1
    ID                                       : 2
    Format                                   : AAC
    Format/Info                              : Advanced Audio Codec
    Format profile                           : LC
    Codec ID                                 : 40
    Duration                                 : 1h 27mn
    Bit rate mode                            : Variable
    Bit rate                                 : 155 Kbps
    Maximum bit rate                         : 246 Kbps
    Channel(s)                               : 2 channels
    Channel positions                        : Front: L R
    Sampling rate                            : 48.0 KHz
    Compression mode                         : Lossy
    Stream size                              : 97.0 MiB (3%)
    Language                                 : Russian
    Encoded date                             : UTC 2015-08-13 11:23:16
    Tagged date                              : UTC 2015-08-13 11:23:28
    Audio #2
    ID                                       : 3
    Format                                   : AAC
    Format/Info                              : Advanced Audio Codec
    Format profile                           : LC
    Codec ID                                 : 40
    Duration                                 : 1h 27mn
    Bit rate mode                            : Variable
    Bit rate                                 : 152 Kbps
    Maximum bit rate                         : 272 Kbps
    Channel(s)                               : 2 channels
    Channel positions                        : Front: L R
    Sampling rate                            : 44.1 KHz
    Compression mode                         : Lossy
    Stream size                              : 95.3 MiB (3%)
    Language                                 : English
    Encoded date                             : UTC 2015-08-13 11:23:16
    Tagged date                              : UTC 2015-08-13 11:23:28
    Audio #3
    ID                                       : 4
    Format                                   : AAC
    Format/Info                              : Advanced Audio Codec
    Format profile                           : LC
    Codec ID                                 : 40
    Duration                                 : 1h 27mn
    Bit rate mode                            : Variable
    Bit rate                                 : 154 Kbps
    Maximum bit rate                         : 264 Kbps
    Channel(s)                               : 2 channels
    Channel positions                        : Front: L R
    Sampling rate                            : 44.1 KHz
    Compression mode                         : Lossy
    Stream size                              : 96.3 MiB (3%)
    Language                                 : Ukrainian
    Encoded date                             : UTC 2015-08-13 11:23:16
    Tagged date                              : UTC 2015-08-13 11:23:28
    Audio #4
    ID                                       : 5
    Format                                   : AC-3
    Format/Info                              : Audio Coding 3
    Mode extension                           : CM (complete main)
    Format settings, Endianness              : Big
    Codec ID                                 : ac-3
    Duration                                 : 1h 27mn
    Bit rate mode                            : Constant
    Bit rate                                 : 384 Kbps
    Channel(s)                               : 6 channels
    Channel positions                        : Front: L C R, Side: L R, LFE
    Sampling rate                            : 48.0 KHz
    Bit depth                                : 16 bits
    Compression mode                         : Lossy
    Stream size                              : 240 MiB (8%)
    Language                                 : Russian
    Encoded date                             : UTC 2015-08-13 11:24:39
    Tagged date                              : UTC 2015-08-13 11:24:42
    Text
    ID                                       : 6
    Format                                   : Apple text
    Codec ID                                 : text
    Duration                                 : 1h 27mn
    Bit rate mode                            : Variable
    Bit rate                                 : 1 bps
    Stream size                              : 375 Bytes (0%)
    Language                                 : English
    Encoded date                             : UTC 2015-08-13 11:24:42
    Tagged date                              : UTC 2015-08-13 11:24:42
    Menu
    00:00:00.000                             : Chapter 1
    00:04:05.078                             : Chapter 2
    00:09:33.073                             : Chapter 3
    00:16:12.014                             : Chapter 4
    00:20:05.038                             : Chapter 5
    00:24:59.041                             : Chapter 6
    00:29:58.006                             : Chapter 7
    00:34:07.005                             : Chapter 8
    00:38:32.062                             : Chapter 9
    00:44:32.047                             : Chapter 10
    00:52:57.010                             : Chapter 11
    00:57:45.007                             : Chapter 12
    01:02:45.015                             : Chapter 13
    01:09:12.027                             : Chapter 14
    01:17:16.011                             : Chapter 15
    01:22:33.036                             : Chapter 16

    Скриншоты

    -

    Релиз подготовлен для просмотра на Apple TV, iPad, iPhone, iPod Touch.
    Для просмотра данного релиза на компьютере с ОС Windows рекомендуется использовать VLC media player
    Скачать .torrent

    Скачать торрент-файл бесплатно и на максимальной скорости!

    Как скачивать? · Что такое торрент? · Рейтинг и ограничения

    !ВНИМАНИЕ!
    Сайт не распространяет и не хранит электронные версии произведений, а занимается лишь лишь предоставлением доступа к создаваемому пользователями каталогу ссылок на торрент-файлы, которые содержат только списки хеш-сумм, убедительная просьба с жалобами обращаться напрямую к пользователю. Файлы для обмена на трекере предоставлены пользователями сайта, и администрация не несёт ответственности за их содержание. Просьба не заливать файлы, защищенные авторскими правами, а также файлы нелегального содержания!


    _________________
    [Профиль] [ЛС]
    Показать сообщения:    
    Ответить на тему

    Текущее время: Сегодня, в 20:11

    Часовой пояс: GMT + 2



    Вы не можете начинать темы
    Вы не можете отвечать на сообщения
    Вы не можете редактировать свои сообщения
    Вы не можете удалять свои сообщения
    Вы не можете голосовать в опросах
    Вы не можете прикреплять файлы к сообщениям
    Вы не можете скачивать файлы