BitTorrentTracker PerecTracker.org
BitTorrentTracker PerecTracker.org
    
Регистрация  ·  Вход
 
 · 
Забыли пароль?

  • Соседи. На тропе войны / Neighbors (Николас Столлер / Nicholas Stoller) [2014, США, комедия, HDRip] Dub

    Ответить на тему
     
    Автор Сообщение

    Light

    Создавать темы 13-Авг-2015 18:04

           

    [Цитировать]

    Соседи. На тропе войны / Neighbors-«Семейные против студентов»-Страна: США ||
    Жанр: комедия
    Год выпуска: 2014
    Продолжительность: 01:36:41-Перевод: Профессиональный (дублированный)
    Cубтитры: нет
    Режиссер: Николас Столлер / Nicholas Stoller.-В ролях: Зак Эфрон, Сет Роген, Роуз Бирн, Элиз Варгас, Зоя Варгас, Брайан Хаски, Айк Баринхолц, Карла Галло, Дэйв Франко, Хелстон Сейдж.-Описание: Как известно, мужчины бывают двух типов: холостые и глубоко женатые. Первые молоды, мускулисты и точно магнит притягивают блондинок и шумных друзей. Вторые обитают дома, выращивают детей и поглощают сериалы по телику. Обычно их пути не пересекаются. Но стоит им стать соседями, мужчины выходят на тропу войны.-КиноПоиск | IMDB | Семпл-Качество видео: HDRip [ BDRip/720p/]
    Формат видео: AVI
    Видео: 688x288 (2.39:1), 23.976 fps, XviD build 73 ~947 kbps avg, 0.20 bit/pixel
    Аудио: 48 kHz, MPEG Layer 3, 2 ch, ~128.00 kbps avg

    MediaInfo

    General
    Complete name : E:\Соседи.На тропе войны.(Logan1995).avi
    Format : AVI
    Format/Info : Audio Video Interleave
    File size : 750 Мбайт
    Duration : 1 ч. 36 м.
    Overall bit rate : 1085 Кбит/сек
    Writing application : VirtualDubMod 1.5.10.3 | www.virtualdub-fr.org || (build 2550/release)
    Writing library : VirtualDubMod build 2550/release
    Video
    ID : 0
    Format : MPEG-4 Visual
    Format profile : Advanced Simple@L5
    Format settings, BVOP : 1
    Format settings, QPel : Нет
    Format settings, GMC : Без точки перехода
    Format settings, Matrix : Выборочная
    Codec ID : XVID
    Codec ID/Hint : XviD
    Duration : 1 ч. 36 м.
    Bit rate : 947 Кбит/сек
    Width : 688 пикс.
    Height : 288 пикс.
    Display aspect ratio : 2,35:1
    Frame rate : 23,976 кадр/сек
    Color space : YUV
    Chroma subsampling : 4:2:0
    Bit depth : 8 бит
    Scan type : Прогрессивная
    Compression mode : С потерями
    Bits/(Pixel*Frame) : 0.199
    Stream size : 655 Мбайт (87%)
    Writing library : XviD 73
    Audio
    ID : 1
    Format : MPEG Audio
    Format version : Version 1
    Format profile : Layer 3
    Codec ID : 55
    Codec ID/Hint : MP3
    Duration : 1 ч. 36 м.
    Bit rate mode : Постоянный
    Bit rate : 128 Кбит/сек
    Channel(s) : 2 канала(ов)
    Sampling rate : 48,0 КГц
    Compression mode : С потерями
    Stream size : 88,5 Мбайт (12%)
    Alignment : Соединение по промежуткам
    Interleave, duration : 42 мс. (1,00 видеокадр)
    Interleave, preload duration : 504 ms
    Writing library : LAME3.99r
    Encoding settings : -m s -V 4 -q 2 -lowpass 17 -b 128

    Скриншоты

    Скачать .torrent

    Скачать торрент-файл бесплатно и на максимальной скорости!

    Как скачивать? · Что такое торрент? · Рейтинг и ограничения

    !ВНИМАНИЕ!
    Сайт не распространяет и не хранит электронные версии произведений, а занимается лишь лишь предоставлением доступа к создаваемому пользователями каталогу ссылок на торрент-файлы, которые содержат только списки хеш-сумм, убедительная просьба с жалобами обращаться напрямую к пользователю. Файлы для обмена на трекере предоставлены пользователями сайта, и администрация не несёт ответственности за их содержание. Просьба не заливать файлы, защищенные авторскими правами, а также файлы нелегального содержания!


    _________________
    [Профиль] [ЛС]
    Показать сообщения:    
    Ответить на тему

    Текущее время: Сегодня, в 01:22

    Часовой пояс: GMT + 2



    Вы не можете начинать темы
    Вы не можете отвечать на сообщения
    Вы не можете редактировать свои сообщения
    Вы не можете удалять свои сообщения
    Вы не можете голосовать в опросах
    Вы не можете прикреплять файлы к сообщениям
    Вы не можете скачивать файлы