BitTorrentTracker PerecTracker.org
BitTorrentTracker PerecTracker.org
    
Регистрация  ·  Вход
 
 · 
Забыли пароль?

  • Ч/Б (Евгений Шелякин) [2014, комедия, криминал, фантастика, WEB-DLRip-AVC]

    Ответить на тему
     
    Автор Сообщение

    rechyn

    Создавать темы 12-Авг-2015 13:09

           

    [Цитировать]

    Ч/Б
    Жанр: комедия, криминал, фантастика
    Год выпуска: 2014
    Продолжительность: 01:29:04
    Озвучивание: Оригинальное [iTunes]
    Режиссёр: Евгений Шелякин
    В ролях: Алексей Чадов, Мераб Нинидзе, Сергей Маковецкий, Гурам Баблишвили, Бесо Гатаев, Кахи Кавсадзе, Екатерина Редникова, Мария Андреева, Мария Звонарева, Андрей Руденский
    Описание: Наши дни. Опасного авторитета-интеллектуала Алхана(Сергей Маковецкий) одновременно решают ограбить обманутый им Ярослав(Алексей Чадов) и мелкий жулик Нурик(Мераб Нинидзе). По случайности во время их столкновения Нурик погибает, но возвращается в мир с миссией: быть ангелом-хранителем Ярослава. Вот только Ярослав при этом страдает «аллергией на Кавказ». Мистическим образом скованные вместе, эти двое вынуждены искать общий язык и спасаться от жаждущего расправы Алхана с его подручными.

    Сэмпл: http://multi-up.com/1062180
    Качество видео: WEB-DLRip-AVC
    Формат видео: MKV
    Видео: MPEG-4 AVC, 1959 Кбит/с, 1024x426
    Аудио: AC3, 384 kb/s (6 ch), 48,0 КГц

    MediaInfo

    Общее
    Уникальный идентификатор : 223458771112157783170549516089060570093 (0xA81C980758857AF7A6B4D92DC79933ED)
    Полное имя : D:ВидеоЧ.Б.2015.WEB-DLRip-AVC 1.46 by Vovan366(ExKinoRay).mkv
    Формат : Matroska
    Версия формата : Version 2
    Размер файла : 1,46 Гбайт
    Продолжительность : 1 ч. 29 м.
    Общий поток : 2343 Кбит/сек
    Дата кодирования : UTC 2015-04-25 23:38:14
    Программа кодирования : mkvmerge v6.1.0 ('Old Devil') built on Mar 4 2013 09:10:42
    Библиотека кодирования : libebml v1.3.0 + libmatroska v1.4.0
    Видео
    Идентификатор : 1
    Формат : AVC
    Формат/Информация : Advanced Video Codec
    Профиль формата : High@L4.1
    Параметр CABAC формата : Да
    Параметр ReFrames формата : 9 кадров
    Идентификатор кодека : V_MPEG4/ISO/AVC
    Продолжительность : 1 ч. 29 м.
    Битрейт : 1959 Кбит/сек
    Ширина : 1024 пикселя
    Высота : 426 пикселей
    Соотношение сторон : 2,40:1
    Режим частоты кадров : Постоянный
    Частота кадров : 25,000 кадров/сек
    Цветовое пространство : YUV
    Субдискретизация насыщенности : 4:2:0
    Битовая глубина : 8 бит
    Тип развёртки : Прогрессивная
    Бит/(Пиксели*Кадры) : 0.180
    Размер потока : 1,19 Гбайт (82%)
    Библиотека кодирования : x264 core 130 r2273 b3065e6
    Настройки программы : cabac=1 / ref=9 / deblock=1:-2:-2 / analyse=0x3:0x113 / me=umh / subme=10 / psy=1 / psy_rd=1.00:0.15 / mixed_ref=1 / me_range=32 / chroma_me=1 / trellis=2 / 8x8dct=1 / cqm=0 / deadzone=21,11 / fast_pskip=1 / chroma_qp_offset=-3 / threads=6 / lookahead_threads=1 / sliced_threads=0 / nr=0 / decimate=0 / interlaced=0 / bluray_compat=0 / constrained_intra=0 / bframes=9 / b_pyramid=2 / b_adapt=2 / b_bias=0 / direct=3 / weightb=1 / open_gop=0 / weightp=2 / keyint=240 / keyint_min=24 / scenecut=40 / intra_refresh=0 / rc=2pass / mbtree=0 / bitrate=1959 / ratetol=1.0 / qcomp=0.60 / qpmin=0 / qpmax=69 / qpstep=4 / cplxblur=20.0 / qblur=0.5 / ip_ratio=1.40 / pb_ratio=1.30 / aq=1:1.00
    Default : Да
    Forced : Нет
    Аудио
    Идентификатор : 2
    Формат : AC-3
    Формат/Информация : Audio Coding 3
    Расширение режима : CM (complete main)
    Параметр Endianness формата : Big
    Идентификатор кодека : A_AC3
    Продолжительность : 1 ч. 29 м.
    Вид битрейта : Постоянный
    Битрейт : 384 Кбит/сек
    Каналы : 6 каналов
    Расположение каналов : Front: L C R, Side: L R, LFE
    Частота : 48,0 КГц
    Битовая глубина : 16 бит
    Метод сжатия : С потерями
    Размер потока : 245 Мбайт (16%)
    Default : Да
    Forced : Нет

    Скриншот c названием фильма

    Скриншоты










    Скачать .torrent

    Скачать торрент-файл бесплатно и на максимальной скорости!

    Как скачивать? · Что такое торрент? · Рейтинг и ограничения

    !ВНИМАНИЕ!
    Сайт не распространяет и не хранит электронные версии произведений, а занимается лишь лишь предоставлением доступа к создаваемому пользователями каталогу ссылок на торрент-файлы, которые содержат только списки хеш-сумм, убедительная просьба с жалобами обращаться напрямую к пользователю. Файлы для обмена на трекере предоставлены пользователями сайта, и администрация не несёт ответственности за их содержание. Просьба не заливать файлы, защищенные авторскими правами, а также файлы нелегального содержания!


    _________________
    [Профиль] [ЛС]
    Показать сообщения:    
    Ответить на тему

    Текущее время: Сегодня, в 14:02

    Часовой пояс: GMT + 2



    Вы не можете начинать темы
    Вы не можете отвечать на сообщения
    Вы не можете редактировать свои сообщения
    Вы не можете удалять свои сообщения
    Вы не можете голосовать в опросах
    Вы не можете прикреплять файлы к сообщениям
    Вы не можете скачивать файлы