BitTorrentTracker PerecTracker.org
BitTorrentTracker PerecTracker.org
    
Регистрация  ·  Вход
 
 · 
Забыли пароль?

  • Адвокат для убийцы / Criminal Law (Мартин Кэмпбелл / Martin Campbell) [1988, США, триллер, криминал, BDRip 720p] DVO (НТВ+) + MVO (Петербург 5-й канал) + Ukr + Original Eng + Sub Eng, Ger

    Ответить на тему
     
    Автор Сообщение

    Flirldrerve

    Создавать темы 12-Авг-2015 13:09

           

    [Цитировать]

    Адвокат для убийцы / Criminal Law
    «'Whoever fights monsters should see to it that in the process he does not become a monster.' - Nietzsche»
    Год выпуска: 1988
    Страна: США
    Производство: Hemdale Films, Northwood Productions
    Жанр: Триллер, криминал
    Продолжительность: 01:53:49
    Перевод 1: Профессиональный (двухголосый закадровый) | НТВ+
    Перевод 2: Профессиональный (многоголосый закадровый) | Петербург 5-й канал
    Оригинальная аудиодорожка: Английский
    Субтитры: Английские, немецкие
    Режиссёр: Мартин Кэмпбелл
    В ролях: Гари Олдман, Кевин Бейкон, Тесс Харпер, Карен Янг, Джо Дон Бейкер, Шон МакКэнн, Рон Лиа, Майкл Синельников, Карен Вулридж, Эли Джирон и др.
    Описание: Подающий надежды молодой адвокат Бен Чейз убеждает присяжных в том, что его очень богатый подзащитный невиновен в садистском убийстве. Однако происходит новое убийство, и Чейз понимает, что его подзащитный далеко не ангел.


    Release Group: SbR
    Сэмпл
    Качество: BDRip 720p
    Формат: MKV
    Видео: MPEG-4 AVC: ~9695 kbps / 1280x692 / 23.976 fps / 16:9
    Аудио: Russian: AC3 / 2.0 / 48 kHz / 192 kbps | НТВ+
    Аудио: Russian: AC3 / 2.0 / 48 kHz / 192 kbps | Петербург 5-й канал
    Аудио: Ukrainian: AC3 / 2.0 / 48 kHz / 192 kbps | "Кiно"
    Аудио: English: FLAC / 2.0 / 48 kHz / 505 kbps / 16-bit | Оригинальный

    MediaInfoXP

    GeneralUnique ID : 171859527262046420064487873108219449943 (0x814AF0E3F2DD511F8B659C0D0462D257)Complete name : F:\Criminal.Law.1988.720p.BluRay.2xRus.Ukr.Eng.x264-SbR.mkvFormat : MatroskaFormat version : Version 4 / Version 2File size : 8.57 GiBDuration : 1h 53mnOverall bit rate mode : VariableOverall bit rate : 10.8 MbpsEncoded date : UTC 2015-04-21 14:58:45Writing application : mkvmerge v7.8.0 ('River Man') 64bit built on Mar 27 2015 16:31:37Writing library : libebml v1.3.1 + libmatroska v1.4.2Attachements : cover.jpgDURATION : 01:53:49.120000000NUMBER_OF_FRAMES : 213410NUMBER_OF_BYTES : 163898880_STATISTICS_WRITING_APP : mkvmerge v7.8.0 ('River Man') 64bit built on Mar 27 2015 16:31:37_STATISTICS_WRITING_DATE_UTC : 2015-04-21 14:58:45_STATISTICS_TAGS : BPS DURATION NUMBER_OF_FRAMES NUMBER_OF_BYTES
    VideoID : 1Format : AVCFormat/Info : Advanced Video CodecFormat profile : High@L4.1Format settings, CABAC : YesFormat settings, ReFrames : 9 framesCodec ID : V_MPEG4/ISO/AVCDuration : 1h 53mnNominal bit rate : 9 700 KbpsWidth : 1 280 pixelsHeight : 692 pixelsDisplay aspect ratio : 1.85:1Frame rate mode : ConstantFrame rate : 23.976 fpsColor space : YUVChroma subsampling : 4:2:0Bit depth : 8 bitsScan type : ProgressiveBits/(Pixel*Frame) : 0.457Writing library : x264 core 146 r0+2586 e393126 t_mod_Custom [8-bit@all X86_64]Encoding settings : cabac=1 / ref=9 / deblock=1:-3:-3 / analyse=0x3:0x133 / me=esa / subme=9 / psy=1 / fade_compensate=0.00 / psy_rd=1.00:0.05 / mixed_ref=1 / me_range=24 / chroma_me=1 / trellis=2 / 8x8dct=1 / cqm=0 / deadzone=21,11 / fast_pskip=0 / chroma_qp_offset=-3 / threads=6 / lookahead_threads=1 / sliced_threads=0 / nr=0 / decimate=1 / interlaced=0 / bluray_compat=0 / constrained_intra=0 / fgo=0 / bframes=11 / b_pyramid=2 / b_adapt=2 / b_bias=0 / direct=3 / weightb=1 / open_gop=0 / weightp=2 / keyint=250 / keyint_min=23 / scenecut=40 / intra_refresh=0 / rc=2pass / mbtree=0 / bitrate=9700 / ratetol=1.0 / qcomp=0.70 / qpmin=0:0:0 / qpmax=69:69:69 / qpstep=4 / cplxblur=20.0 / qblur=0.5 / ip_ratio=1.30 / pb_ratio=1.20 / aq=1:0.88 / aq-sensitivity=10.00 / aq-factor=1.00:1.00:1.00 / aq2=0 / aq3=0Language : EnglishDefault : YesForced : NoColor range : LimitedMatrix coefficients : BT.709DURATION : 01:53:49.073000000NUMBER_OF_FRAMES : 163734NUMBER_OF_BYTES : 8276345449_STATISTICS_WRITING_APP : mkvmerge v7.8.0 ('River Man') 64bit built on Mar 27 2015 16:31:37_STATISTICS_WRITING_DATE_UTC : 2015-04-21 14:58:45_STATISTICS_TAGS : BPS DURATION NUMBER_OF_FRAMES NUMBER_OF_BYTES
    Audio #1ID : 2Format : AC-3Format/Info : Audio Coding 3Mode extension : CM (complete main)Format settings, Endianness : BigCodec ID : A_AC3Duration : 1h 53mnBit rate mode : ConstantBit rate : 192 KbpsChannel(s) : 2 channelsChannel positions : Front: L RSampling rate : 48.0 KHzCompression mode : LossyStream size : 156 MiB (2%)Title : Многоголосый закадровый, НТВ+Language : RussianDefault : YesForced : No
    Audio #2ID : 3Format : AC-3Format/Info : Audio Coding 3Mode extension : CM (complete main)Format settings, Endianness : BigCodec ID : A_AC3Duration : 1h 53mnBit rate mode : ConstantBit rate : 192 KbpsChannel(s) : 2 channelsChannel positions : Front: L RSampling rate : 48.0 KHzCompression mode : LossyStream size : 156 MiB (2%)Title : Многоголосый закадровый, Петербург 5-й каналLanguage : RussianDefault : NoForced : No
    Audio #3ID : 4Format : AC-3Format/Info : Audio Coding 3Mode extension : CM (complete main)Format settings, Endianness : BigCodec ID : A_AC3Duration : 1h 53mnBit rate mode : ConstantBit rate : 192 KbpsChannel(s) : 2 channelsChannel positions : Front: L RSampling rate : 48.0 KHzCompression mode : LossyStream size : 156 MiB (2%)Language : UkrainianDefault : NoForced : No
    Audio #4ID : 5Format : FLACFormat/Info : Free Lossless Audio CodecCodec ID : A_FLACDuration : 1h 53mnBit rate mode : VariableChannel(s) : 2 channelsSampling rate : 48.0 KHzBit depth : 16 bitsWriting library : libFLAC 1.2.1 (UTC 2007-09-17)Language : EnglishDefault : NoForced : No
    Text #1ID : 6Format : UTF-8Codec ID : S_TEXT/UTF8Codec ID/Info : UTF-8 Plain TextLanguage : EnglishDefault : NoForced : No
    Text #2ID : 7Format : UTF-8Codec ID : S_TEXT/UTF8Codec ID/Info : UTF-8 Plain TextLanguage : EnglishDefault : NoForced : No
    Text #3ID : 8Format : UTF-8Codec ID : S_TEXT/UTF8Codec ID/Info : UTF-8 Plain TextLanguage : GermanDefault : NoForced : No
    Menu00:00:00.000 : en:00:00:00.00000:08:39.519 : en:00:08:39.51900:19:50.189 : en:00:19:50.18900:28:43.721 : en:00:28:43.72100:35:35.132 : en:00:35:35.13200:49:03.940 : en:00:49:03.94000:57:25.442 : en:00:57:25.44201:05:40.936 : en:01:05:40.93601:16:47.603 : en:01:16:47.60301:25:18.113 : en:01:25:18.11301:34:51.685 : en:01:34:51.68501:42:22.136 : en:01:42:22.136

    Скриншот с названием фильма

    Название не показано.

    Скриншоты

    Скачать .torrent

    Скачать торрент-файл бесплатно и на максимальной скорости!

    Как скачивать? · Что такое торрент? · Рейтинг и ограничения

    !ВНИМАНИЕ!
    Сайт не распространяет и не хранит электронные версии произведений, а занимается лишь лишь предоставлением доступа к создаваемому пользователями каталогу ссылок на торрент-файлы, которые содержат только списки хеш-сумм, убедительная просьба с жалобами обращаться напрямую к пользователю. Файлы для обмена на трекере предоставлены пользователями сайта, и администрация не несёт ответственности за их содержание. Просьба не заливать файлы, защищенные авторскими правами, а также файлы нелегального содержания!


    _________________
    [Профиль] [ЛС]
    Показать сообщения:    
    Ответить на тему

    Текущее время: Сегодня, в 11:51

    Часовой пояс: GMT + 2



    Вы не можете начинать темы
    Вы не можете отвечать на сообщения
    Вы не можете редактировать свои сообщения
    Вы не можете удалять свои сообщения
    Вы не можете голосовать в опросах
    Вы не можете прикреплять файлы к сообщениям
    Вы не можете скачивать файлы