BitTorrentTracker PerecTracker.org
BitTorrentTracker PerecTracker.org
    
Регистрация  ·  Вход
 
 · 
Забыли пароль?

  • Дракула / Dracula Untold (Гари Шор / Gary Shore) [2014, США, ужасы, фэнтези, боевик, драма, военный, BDRip 720p] Dub + AVO (Визгунов) + VO (Есарев) + Sub Rus, Ukr, Eng + Original Eng

    Ответить на тему
     
    Автор Сообщение

    Flirldrerve

    Создавать темы 12-Авг-2015 13:09

           

    [Цитировать]

    Дракула / Dracula UntoldСтрана: США
    Студия: Legendary Pictures, Michael De Luca Productions, Universal Pictures
    Жанр: ужасы, фэнтези, боевик, драма, военный
    Год выпуска: 2014
    Продолжительность: 01:32:08
    Перевод 1: Профессиональный (дублированный) Blu-ray CEE
    Перевод 2: Авторский (одноголосый закадровый) Визгунов
    Перевод 3: Одноголосый (закадровый) Есарев
    Cубтитры: русские (forced, full-BD, full-voronine, full-vl_lev), украинские (forced, full), английские (full, SDH, SDH-COLORED)
    Оригинальная аудиодорожка: английский
    Режиссер: Гари Шор / Gary Shore
    В ролях: Люк Эванс, Сара Гадон, Доминик Купер, Арт Паркинсон, Чарльз Дэнс, Дайармейд Мерта, Пол Кэй, Уильям Хьюстон, Ной Хантли, Ронан Вайберт
    Описание: Влад Дракула был величайшим правителем, доблестным воином и страстным мужчиной. Но судьба свела его с врагом, коварство которого не знало границ. И тогда Дракула заключил сделку — нечеловеческая сила в обмен на самую малость — бессмертную душу…

    Тип релиза: BDRip 720p [CRiSC]
    Контейнер: MKV
    Видео: AVC, 1280x534, 6380 kbps, 23.976 fps
    Аудио 1: Russian: 48 kHz, DTS, 3/2 (L,C,R,l,r) + LFE ch, ~768.00 kbps avg |Blu-ray CEE|
    Аудио 2: Russian: 48 kHz, AC3, 3/2 (L,C,R,l,r) + LFE ch, ~640.00 kbps avg |Визгунов|
    Аудио 3: Russian: 48 kHz, AC3, 3/2 (L,C,R,l,r) + LFE ch, ~640.00 kbps avg |Есарев|
    Аудио 4: English: 48 kHz, AC3, 3/2 (L,C,R,l,r) + LFE ch, ~640.00 kbps |Original|
    Чаптеры: есть

    x264 log

    x264 [info]: frame I:1077 Avg QP:12.83 size:126302
    x264 [info]: frame P:28481 Avg QP:14.34 size: 58192
    x264 [info]: frame B:102990 Avg QP:16.83 size: 26524
    x264 [info]: consecutive B-frames: 2.7% 3.2% 7.3% 11.2% 15.9% 47.1% 9.5% 3.1%
    encoded 132548 frames, 9.019 fps, 6548.14 kb/s

    Доп.информация

    Перевод Д. Есарева выполнен в рамках сервиса от HDCLUB "Озвучивание". Спонсоры: нокомент, mvch73, Nikita_1976, November, dikii. Для меценатов раздача золотом.
    Запись чистого голоса С. Визгунова предоставил нокомент.

    MediaInfo

    General
    Unique ID : 213257609957486892798165705196000578712 (0xA06FEBF3C804A982ACB9DBE21E450C98)
    Complete name : D:\дорога\Dracula.Untold.2014.720p.BluRay.DD5.1.x264-Talian-.mkv
    Format : Matroska
    Format version : Version 2
    File size : 5.95 GiB
    Duration : 1h 32mn
    Overall bit rate : 9 240 Kbps
    Movie name : Dracula Untold -Talian-
    Encoded date : UTC 2015-08-06 14:28:35
    Writing application : mkvmerge v5.7.0 ('The Whirlwind') built on Jul 8 2012 20:08:51
    Writing library : libebml v1.2.3 + libmatroska v1.3.0
    Video
    ID : 1
    Format : AVC
    Format/Info : Advanced Video Codec
    Format profile : High@L4.1
    Format settings, CABAC : Yes
    Format settings, ReFrames : 12 frames
    Codec ID : V_MPEG4/ISO/AVC
    Duration : 1h 32mn
    Bit rate : 6 381 Kbps
    Width : 1 280 pixels
    Height : 534 pixels
    Display aspect ratio : 2.40:1
    Frame rate : 23.976 fps
    Color space : YUV
    Chroma subsampling : 4:2:0
    Bit depth : 8 bits
    Scan type : Progressive
    Bits/(Pixel*Frame) : 0.389
    Stream size : 4.11 GiB (69%)
    Title : CRiSC
    Writing library : x264 core 142 r2431+42 c69a006 tMod [8-bit@4:2:0 X86_64]
    Encoding settings : cabac=1 / ref=12 / deblock=1:-3:-3 / analyse=0x3:0x133 / me=umh / subme=10 / psy=1 / fade_compensate=0.00 / psy_rd=1.00:0.00 / mixed_ref=1 / me_range=24 / chroma_me=1 / trellis=2 / 8x8dct=1 / cqm=0 / deadzone=21,11 / fast_pskip=1 / chroma_qp_offset=-2 / threads=12 / lookahead_threads=2 / sliced_threads=0 / nr=0 / decimate=1 / interlaced=0 / bluray_compat=0 / constrained_intra=0 / fgo=0 / bframes=7 / b_pyramid=2 / b_adapt=2 / b_bias=0 / direct=3 / weightb=1 / open_gop=0 / weightp=2 / keyint=250 / keyint_min=23 / scenecut=40 / intra_refresh=0 / rc_lookahead=60 / rc=crf / mbtree=0 / crf=15.9000 / qcomp=0.75 / qpmin=0:0:0 / qpmax=69:69:69 / qpstep=4 / vbv_maxrate=62500 / vbv_bufsize=78125 / crf_max=0.0 / nal_hrd=none / filler=0 / ip_ratio=1.40 / pb_ratio=1.30 / aq=4:0.70 / aq-sensitivity=10.00 / aq-factor=1.00:1.00:1.00 / aq2=0 / aq3=0
    Language : English
    Default : Yes
    Forced : No
    Matrix coefficients : BT.709-5, BT.1361, IEC 61966-2-4 709, SMPTE RP177
    Audio #1
    ID : 2
    Format : DTS
    Format/Info : Digital Theater Systems
    Codec ID : A_DTS
    Duration : 1h 32mn
    Bit rate mode : Constant
    Bit rate : 755 Kbps
    Channel(s) : 6 channels
    Channel positions : Front: L C R, Side: L R, LFE
    Sampling rate : 48.0 KHz
    Bit depth : 24 bits
    Compression mode : Lossy
    Stream size : 497 MiB (8%)
    Title : DUB-Blu-ray CEE
    Language : Russian
    Default : Yes
    Forced : No
    Audio #2
    ID : 3
    Format : AC-3
    Format/Info : Audio Coding 3
    Mode extension : CM (complete main)
    Format settings, Endianness : Big
    Codec ID : A_AC3
    Duration : 1h 32mn
    Bit rate mode : Constant
    Bit rate : 640 Kbps
    Channel(s) : 6 channels
    Channel positions : Front: L C R, Side: L R, LFE
    Sampling rate : 48.0 KHz
    Bit depth : 16 bits
    Compression mode : Lossy
    Stream size : 422 MiB (7%)
    Title : AVO-Визгунов
    Language : Russian
    Default : No
    Forced : No
    Audio #3
    ID : 4
    Format : AC-3
    Format/Info : Audio Coding 3
    Mode extension : CM (complete main)
    Format settings, Endianness : Big
    Codec ID : A_AC3
    Duration : 1h 32mn
    Bit rate mode : Constant
    Bit rate : 640 Kbps
    Channel(s) : 6 channels
    Channel positions : Front: L C R, Side: L R, LFE
    Sampling rate : 48.0 KHz
    Bit depth : 16 bits
    Compression mode : Lossy
    Stream size : 422 MiB (7%)
    Title : VO-Есарев
    Language : Russian
    Default : No
    Forced : No
    Audio #4
    ID : 5
    Format : AC-3
    Format/Info : Audio Coding 3
    Mode extension : CM (complete main)
    Format settings, Endianness : Big
    Codec ID : A_AC3
    Duration : 1h 32mn
    Bit rate mode : Constant
    Bit rate : 640 Kbps
    Channel(s) : 6 channels
    Channel positions : Front: L C R, Side: L R, LFE
    Sampling rate : 48.0 KHz
    Bit depth : 16 bits
    Compression mode : Lossy
    Stream size : 422 MiB (7%)
    Title : Original
    Language : English
    Default : No
    Forced : No
    Text #1
    ID : 6
    Format : UTF-8
    Codec ID : S_TEXT/UTF8
    Codec ID/Info : UTF-8 Plain Text
    Title : Sub-forced
    Language : Russian
    Default : Yes
    Forced : No
    Text #2
    ID : 7
    Format : UTF-8
    Codec ID : S_TEXT/UTF8
    Codec ID/Info : UTF-8 Plain Text
    Title : Sub-BD
    Language : Russian
    Default : No
    Forced : No
    Text #3
    ID : 8
    Format : UTF-8
    Codec ID : S_TEXT/UTF8
    Codec ID/Info : UTF-8 Plain Text
    Title : Sub-voronine
    Language : Russian
    Default : No
    Forced : No
    Text #4
    ID : 9
    Format : UTF-8
    Codec ID : S_TEXT/UTF8
    Codec ID/Info : UTF-8 Plain Text
    Title : Sub-vl_lev
    Language : Russian
    Default : No
    Forced : No
    Text #5
    ID : 10
    Format : UTF-8
    Codec ID : S_TEXT/UTF8
    Codec ID/Info : UTF-8 Plain Text
    Title : Sub-forced
    Language : Ukrainian
    Default : No
    Forced : No
    Text #6
    ID : 11
    Format : UTF-8
    Codec ID : S_TEXT/UTF8
    Codec ID/Info : UTF-8 Plain Text
    Title : Sub-BD
    Language : Ukrainian
    Default : No
    Forced : No
    Text #7
    ID : 12
    Format : UTF-8
    Codec ID : S_TEXT/UTF8
    Codec ID/Info : UTF-8 Plain Text
    Title : Sub-forced
    Language : English
    Default : No
    Forced : No
    Text #8
    ID : 13
    Format : UTF-8
    Codec ID : S_TEXT/UTF8
    Codec ID/Info : UTF-8 Plain Text
    Title : Sub-full
    Language : English
    Default : No
    Forced : No
    Text #9
    ID : 14
    Format : UTF-8
    Codec ID : S_TEXT/UTF8
    Codec ID/Info : UTF-8 Plain Text
    Title : Sub-SDH
    Language : English
    Default : No
    Forced : No
    Text #10
    ID : 15
    Format : UTF-8
    Codec ID : S_TEXT/UTF8
    Codec ID/Info : UTF-8 Plain Text
    Title : Sub-SDH-Colored
    Language : English
    Default : No
    Forced : No
    Menu
    00:00:00.000 : en:Chapter 01
    00:04:07.288 : en:Chapter 02
    00:07:20.565 : en:Chapter 03
    00:11:32.817 : en:Chapter 04
    00:16:30.698 : en:Chapter 05
    00:22:53.663 : en:Chapter 06
    00:30:23.446 : en:Chapter 07
    00:34:16.763 : en:Chapter 08
    00:38:57.043 : en:Chapter 09
    00:43:00.369 : en:Chapter 10
    00:47:03.737 : en:Chapter 11
    00:53:16.735 : en:Chapter 12
    00:57:39.831 : en:Chapter 13
    01:00:47.310 : en:Chapter 14
    01:04:30.032 : en:Chapter 15
    01:09:12.189 : en:Chapter 16
    01:12:47.613 : en:Chapter 17
    01:17:11.877 : en:Chapter 18
    01:21:52.657 : en:Chapter 19
    01:25:02.555 : en:Chapter 20

    Скриншоты

    Source vs Encode


    Скачать .torrent

    Скачать торрент-файл бесплатно и на максимальной скорости!

    Как скачивать? · Что такое торрент? · Рейтинг и ограничения

    !ВНИМАНИЕ!
    Сайт не распространяет и не хранит электронные версии произведений, а занимается лишь лишь предоставлением доступа к создаваемому пользователями каталогу ссылок на торрент-файлы, которые содержат только списки хеш-сумм, убедительная просьба с жалобами обращаться напрямую к пользователю. Файлы для обмена на трекере предоставлены пользователями сайта, и администрация не несёт ответственности за их содержание. Просьба не заливать файлы, защищенные авторскими правами, а также файлы нелегального содержания!


    _________________
    [Профиль] [ЛС]
    Показать сообщения:    
    Ответить на тему

    Текущее время: Сегодня, в 01:10

    Часовой пояс: GMT + 2



    Вы не можете начинать темы
    Вы не можете отвечать на сообщения
    Вы не можете редактировать свои сообщения
    Вы не можете удалять свои сообщения
    Вы не можете голосовать в опросах
    Вы не можете прикреплять файлы к сообщениям
    Вы не можете скачивать файлы