BitTorrentTracker PerecTracker.org
BitTorrentTracker PerecTracker.org
    
Регистрация  ·  Вход
 
 · 
Забыли пароль?

  • Переправа / The Crossing (Джон Ву / John Woo ) [2014, США, Драма, история, BDRip, HD (720p)] DUB + Original + sub (eng, chn)

    Ответить на тему
     
    Автор Сообщение

    rechyn

    Создавать темы 12-Авг-2015 13:09

           

    [Цитировать]

    Переправа / The Crossing
    «Самое сложное время, чтобы любить»
    6.739 / 10 6.10 / 10
    -Год выпуска: 2014
    Страна: США
    Жанр: Драма, история
    Продолжительность: 02:08:14
    Перевод: Дублированный (iTunes)
    Оригинальная аудиодорожка: Есть
    Cубтитры: Английские, Китайские
    Режиссёр: Джон Ву
    Сценарий: Хуи-Линг Уэнг
    Продюсер: Тэжэньцэ Чан, Эргоу Конг, Минг Ли
    Оператор: Чжао Фэй
    Композитор: Таро Ивасиро
    Художник: Хорас Ма, Тонгсюнь Чен
    Монтаж: Исмаэль Гомес III
    В ролях: Такэси Канэсиро, Чжан Цзыи, Сон Хё Гю, Хуан Сяомин, Тун Давэй, Масами Нагасава, Вэй Бай, Шан Конг, Джек Као, Хитоми Куроки
    Бюджет: $65 000 000
    Сборы в России: $93 692
    Мировая премьера: 2 декабря 2014
    Премьера (РФ): 23 июля 2015, «АКМ»
    Описание: В центре повествования три пары, чьи судьбы драматически связаны с событиями, которые разворачиваются на фоне военных действий. Фильм основан на реальной трагедии потопления корабля «Тайпин», произошедшем в 1949 году и унесший жизни более 1500 пассажиров и экипажа.-Качество исходника: BDRemux (HDClub)
    Качество: BDRip
    Тип: HD (720p)
    Контейнер: M4V
    Видео: H.264, 1280x544, 2.35:1, 3 500 Kbps, 23.976 fps
    Аудио 1: Русский/Дублированный (iTunes), AAC / 2.0 / 157 Kbps / 48.0 KHz
    Аудио 2: Китайский/Оригинальная дорожка , AAC / 2.0 / 159 Kbps / 48.0 KHz
    Аудио 3: Русский/Дублированный (iTunes), AC-3 / 5.1 / 384 Kbps / 48.0 KHz
    Аудио 4: Китайский/Оригинальная дорожка , AC-3 / 5.1 / 640 Kbps / 48.0 KHz
    Субтитры 1: Английские полные
    Субтитры 2: Китайские полные
    -

    iTunes Meta Tags

    Sort Name: Переправа
    XID: Apple:vendor_id:2014-778646
    contentID: 979701600
    Copyright: © 2014 Beijing Galloping Horse Film Co. Ltd, Le Vision Pictures Co. Ltd
    Screenwriters: Хуи-Линг Уэнг
    Producers: Тэжэньцэ Чан, Эргоу Конг, Минг Ли
    Director: Джон Ву
    Cast: Такэси Канэсиро, Чжан Цзыи, Сон Хё Гю, Хуан Сяомин, Тун Давэй, Масами Нагасава, Шан Конг, Джек Као, Хитоми Куроки, Боуи Лам
    Studio: Beijing Galloping Horse Film Co. Ltd, Le
    Rating: 4
    Long Description: В центре повествования три пары, чьи судьбы драматически связаны с событиями, которые разворачиваются на фоне военных действий. Фильм основан на реальной трагедии потопления корабля "Тайпин", произошедшем в 1949 году и унесший жизни более 1500 пассажиров и экипажа.
    Description: В центре повествования три пары, чьи судьбы драматически связаны с событиями, которые разворачиваются на фоне военных действий. Фильм основан на реальной трагедии потопления корабля "Тайпин", произошедшем в 1949 году и унесший жизни более 1500 пассажиров и экипажа.
    Release Date: 2014-12-02T08:00:00Z
    Genre: Драма
    Artist: Джон Ву
    Name: Переправа

    MediaInfo

    General
    Complete name                            : /Users/imac/HandBrake/The Crossing (720p HD).m4v
    Format                                   : MPEG-4
    Codec ID                                 : M4V
    File size                                : 4.33 GiB
    Duration                                 : 2h 8mn
    Overall bit rate mode                    : Variable
    Overall bit rate                         : 4 833 Kbps
    Movie name                               : Переправа
    Performer                                : Джон Ву
    Genre                                    : Драма
    Recorded date                            : UTC 2014-12-02 08:00:00
    Encoded date                             : UTC 2015-08-09 20:54:59
    Tagged date                              : UTC 2015-08-09 20:57:44
    Copyright                                : © 2014 Beijing Galloping Horse Film Co. Ltd, Le Vision Pictures Co. Ltd
    Cover                                    : Yes
    sonm                                     : Переправа
    desc                                     : В центре повествования три пары, чьи судьбы драматически связаны с событиями, которые разворачиваются на фоне военных действий. Фильм основан на реальной трагедии потопления корабля "Тайпин", произошедшем в 1949 году и унесший жизни более 1500 пассажиров и экипажа.
    ldes                                     : В центре повествования три пары, чьи судьбы драматически связаны с событиями, которые разворачиваются на фоне военных действий. Фильм основан на реальной трагедии потопления корабля "Тайпин", произошедшем в 1949 году и унесший жизни более 1500 пассажиров и экипажа.
    hdvd                                     : 1
    stik                                     : 9
    rtng                                     : 0
    cnID                                     : 979701600
    xid                                      : Apple:vendor_id:2014-778646
    iTunEXTC                                 : ru-movie|16+|375|
    iTunMOVI                                 : <?xml version=\"1.0\" encoding=\"UTF-8\"?> / <!DOCTYPE plist PUBLIC \"-//Apple//DTD PLIST 1.0//EN\" \"http://anonym.to/?http://www.apple.com/DTDs/PropertyList-1.0.dtd\"> / <plist version=\"1.0\"> / <dict> /  <key>cast</key> /  <array> /   <dict> /    <key>name</key> /    <string>Такэси Канэсиро</string> /   </dict> /   <dict> /    <key>name</key> /    <string>Чжан Цзыи</string> /   </dict> /   <dict> /    <key>name</key> /    <string>Сон Хё Гю</string> /   </dict> /   <dict> /    <key>name</key> /    <string>Хуан Сяомин</string> /   </dict> /   <dict> /    <key>name</key> /    <string>Тун Давэй</string> /   </dict> /   <dict> /    <key>name</key> /    <string>Масами Нагасава</string> /   </dict> /   <dict> /    <key>name</key> /    <string>Шан Конг</string> /   </dict> /   <dict> /    <key>name</key> /    <string>Джек Као</string> /   </dict> /   <dict> /    <key>name</key> /    <string>Хитоми Куроки</string> /   </dict> /   <dict> /    <key>name</key> /    <string>Боуи Лам</string> /   </dict> /  </array> /  <key>directors</key> /  <array> /   <dict> /    <key>name</key> /    <string>Джон Ву</string> /   </dict> /  </array> /  <key>producers</key> /  <array> /   <dict> /    <key>name</key> /    <string>Тэжэньцэ Чан</string> /   </dict> /   <dict> /    <key>name</key> /    <string>Эргоу Конг</string> /   </dict> /   <dict> /    <key>name</key> /    <string>Минг Ли</string> /   </dict> /  </array> /  <key>screenwriters</key> /  <array> /   <dict> /    <key>name</key> /    <string>Хуи-Линг Уэнг</string> /   </dict> /  </array> /  <key>studio</key> /  <string>Beijing Galloping Horse Film Co. Ltd, Le</string> / </dict> / </plist>
    Video #1
    ID                                       : 1
    Format                                   : AVC
    Format/Info                              : Advanced Video Codec
    Format profile                           : High@L3.1
    Format settings, CABAC                   : No
    Format settings, ReFrames                : 3 frames
    Codec ID                                 : avc1
    Codec ID/Info                            : Advanced Video Coding
    Duration                                 : 2h 8mn
    Bit rate mode                            : Variable
    Bit rate                                 : 3 500 Kbps
    Width                                    : 1 280 pixels
    Height                                   : 544 pixels
    Display aspect ratio                     : 2.35:1
    Frame rate mode                          : Variable
    Frame rate                               : 23.976 fps
    Minimum frame rate                       : 23.810 fps
    Maximum frame rate                       : 24.318 fps
    Color space                              : YUV
    Chroma subsampling                       : 4:2:0
    Bit depth                                : 8 bits
    Scan type                                : Progressive
    Bits/(Pixel*Frame)                       : 0.210
    Stream size                              : 3.12 GiB (72%)
    Writing library                          : x264 core 142 r2479 dd79a61
    Encoding settings                        : cabac=0 / ref=3 / deblock=1:-3:-3 / analyse=0x3:0x113 / me=umh / subme=9 / psy=1 / psy_rd=1.00:0.15 / mixed_ref=1 / me_range=32 / chroma_me=1 / trellis=0 / 8x8dct=1 / cqm=0 / deadzone=21,11 / fast_pskip=0 / chroma_qp_offset=-2 / threads=36 / lookahead_threads=3 / sliced_threads=0 / nr=0 / decimate=0 / interlaced=0 / bluray_compat=0 / constrained_intra=0 / bframes=3 / b_pyramid=0 / b_adapt=2 / b_bias=0 / direct=1 / weightb=0 / open_gop=0 / weightp=0 / keyint=240 / keyint_min=24 / scenecut=40 / intra_refresh=0 / rc_lookahead=40 / rc=2pass / mbtree=1 / bitrate=3500 / ratetol=1.0 / qcomp=0.65 / qpmin=0 / qpmax=69 / qpstep=4 / cplxblur=20.0 / qblur=0.5 / vbv_maxrate=9500 / vbv_bufsize=9500 / nal_hrd=none / filler=0 / ip_ratio=1.40 / aq=1:1.10
    Language                                 : Chinese
    Encoded date                             : UTC 2015-08-09 20:54:59
    Tagged date                              : UTC 2015-08-09 20:55:10
    Color primaries                          : BT.709-5, BT.1361, IEC 61966-2-4, SMPTE RP177
    Transfer characteristics                 : BT.709-5, BT.1361
    Matrix coefficients                      : BT.709-5, BT.1361, IEC 61966-2-4 709, SMPTE RP177
    Video #2
    ID                                       : 9
    Format                                   : JPEG
    Codec ID                                 : jpeg
    Duration                                 : 2h 8mn
    Bit rate mode                            : Variable
    Bit rate                                 : 796 bps
    Width                                    : 640 pixels
    Height                                   : 272 pixels
    Display aspect ratio                     : 2.35:1
    Frame rate mode                          : Variable
    Frame rate                               : 0.002 fps
    Minimum frame rate                       : 0.001 fps
    Maximum frame rate                       : 0.003 fps
    Color space                              : YUV
    Chroma subsampling                       : 4:2:0
    Bit depth                                : 8 bits
    Compression mode                         : Lossy
    Bits/(Pixel*Frame)                       : 2.286
    Stream size                              : 729 KiB (0%)
    Language                                 : Chinese
    Encoded date                             : UTC 2015-08-09 20:55:18
    Tagged date                              : UTC 2015-08-09 20:55:18
    Audio #1
    ID                                       : 2
    Format                                   : AAC
    Format/Info                              : Advanced Audio Codec
    Format profile                           : LC
    Codec ID                                 : 40
    Duration                                 : 2h 8mn
    Bit rate mode                            : Variable
    Bit rate                                 : 157 Kbps
    Maximum bit rate                         : 239 Kbps
    Channel(s)                               : 2 channels
    Channel positions                        : Front: L R
    Sampling rate                            : 48.0 KHz
    Compression mode                         : Lossy
    Stream size                              : 144 MiB (3%)
    Language                                 : Russian
    Encoded date                             : UTC 2015-08-09 20:54:59
    Tagged date                              : UTC 2015-08-09 20:55:14
    Audio #2
    ID                                       : 3
    Format                                   : AAC
    Format/Info                              : Advanced Audio Codec
    Format profile                           : LC
    Codec ID                                 : 40
    Duration                                 : 2h 8mn
    Bit rate mode                            : Variable
    Bit rate                                 : 159 Kbps
    Maximum bit rate                         : 271 Kbps
    Channel(s)                               : 2 channels
    Channel positions                        : Front: L R
    Sampling rate                            : 48.0 KHz
    Compression mode                         : Lossy
    Stream size                              : 146 MiB (3%)
    Language                                 : Chinese
    Encoded date                             : UTC 2015-08-09 20:54:59
    Tagged date                              : UTC 2015-08-09 20:55:14
    Audio #3
    ID                                       : 4
    Format                                   : AC-3
    Format/Info                              : Audio Coding 3
    Mode extension                           : CM (complete main)
    Format settings, Endianness              : Big
    Codec ID                                 : ac-3
    Duration                                 : 2h 8mn
    Bit rate mode                            : Constant
    Bit rate                                 : 384 Kbps
    Channel(s)                               : 6 channels
    Channel positions                        : Front: L C R, Side: L R, LFE
    Sampling rate                            : 48.0 KHz
    Bit depth                                : 16 bits
    Compression mode                         : Lossy
    Stream size                              : 352 MiB (8%)
    Language                                 : Russian
    Encoded date                             : UTC 2015-08-09 20:54:59
    Tagged date                              : UTC 2015-08-09 20:55:06
    Audio #4
    ID                                       : 5
    Format                                   : AC-3
    Format/Info                              : Audio Coding 3
    Mode extension                           : CM (complete main)
    Format settings, Endianness              : Big
    Codec ID                                 : ac-3
    Duration                                 : 2h 8mn
    Bit rate mode                            : Constant
    Bit rate                                 : 640 Kbps
    Channel(s)                               : 6 channels
    Channel positions                        : Front: L C R, Side: L R, LFE
    Sampling rate                            : 48.0 KHz
    Bit depth                                : 16 bits
    Compression mode                         : Lossy
    Stream size                              : 587 MiB (13%)
    Language                                 : Chinese
    Encoded date                             : UTC 2015-08-09 20:54:59
    Tagged date                              : UTC 2015-08-09 20:55:06
    Text #1
    ID                                       : 6
    Format                                   : Timed text
    Muxing mode                              : sbtl
    Codec ID                                 : tx3g
    Duration                                 : 2h 2mn
    Bit rate mode                            : Variable
    Bit rate                                 : 46 bps
    Stream size                              : 41.5 KiB (0%)
    Language                                 : English
    Encoded date                             : UTC 2015-08-09 20:54:59
    Tagged date                              : UTC 2015-08-09 20:55:06
    Text #2
    ID                                       : 7
    Format                                   : Timed text
    Muxing mode                              : sbtl
    Codec ID                                 : tx3g
    Duration                                 : 1h 59mn
    Bit rate mode                            : Variable
    Bit rate                                 : 38 bps
    Stream size                              : 33.6 KiB (0%)
    Language                                 : Chinese
    Encoded date                             : UTC 2015-08-09 20:54:59
    Tagged date                              : UTC 2015-08-09 20:55:06
    Text #3
    ID                                       : 8
    Format                                   : Apple text
    Codec ID                                 : text
    Duration                                 : 2h 8mn
    Bit rate mode                            : Variable
    Bit rate                                 : 0 bps
    Stream size                              : 351 Bytes (0%)
    Language                                 : English
    Encoded date                             : UTC 2015-08-09 20:55:14
    Tagged date                              : UTC 2015-08-09 20:55:14
    Menu
    00:00:00.000                             : Chapter 1
    00:11:49.584                             : Chapter 2
    00:19:25.373                             : Chapter 3
    00:26:32.633                             : Chapter 4
    00:36:24.474                             : Chapter 5
    00:43:05.500                             : Chapter 6
    00:54:03.991                             : Chapter 7
    01:03:53.788                             : Chapter 8
    01:11:12.477                             : Chapter 9
    01:21:18.415                             : Chapter 10
    01:26:56.962                             : Chapter 11
    01:33:14.172                             : Chapter 12
    01:41:22.994                             : Chapter 13
    01:50:31.124                             : Chapter 14
    02:02:11.449                             : Chapter 15

    x264 лог

    x264 [info]: frame I:1699  Avg QP:18.38  size: 89963
    x264 [info]: frame P:76850 Avg QP:21.38  size: 29863
    x264 [info]: frame B:105939 Avg QP:22.72  size:  8519
    x264 [info]: consecutive B-frames:  9.0% 30.9% 37.2% 22.9%
    x264 [info]: mb I  I16..4:  7.7% 56.5% 35.7%
    x264 [info]: mb P  I16..4:  1.8%  6.3%  3.4%  P16..4: 46.7% 23.1% 10.0%  0.0%  0.0%    skip: 8.8%
    x264 [info]: mb B  I16..4:  0.2%  1.1%  0.7%  B16..8: 46.7%  9.8%  1.6%  direct: 3.9%  skip:36.0%  L0:39.5% L1:53.7% BI: 6.9%
    x264 [info]: 8x8 transform intra:54.6% inter:49.1%
    x264 [info]: coded y,uvDC,uvAC intra: 81.7% 70.8% 37.2% inter: 26.7% 19.7% 7.3%
    x264 [info]: i16 v,h,dc,p: 40% 20%  5% 35%
    x264 [info]: i8 v,h,dc,ddl,ddr,vr,hd,vl,hu:  7%  7%  4% 12% 17% 15% 16% 11% 11%
    x264 [info]: i4 v,h,dc,ddl,ddr,vr,hd,vl,hu:  7%  8%  3% 12% 18% 16% 16% 11% 10%
    x264 [info]: i8c dc,h,v,p: 52% 18% 19% 11%
    x264 [info]: ref P L0: 77.2% 13.8%  9.1%
    x264 [info]: ref B L0: 85.0% 15.0%
    x264 [info]: kb/s:3483.25

    Скриншоты

    -

    Релиз подготовлен для просмотра на Apple TV, iPad, iPhone, iPod Touch.
    Для просмотра данного релиза на компьютере с ОС Windows рекомендуется использовать VLC media player
    Скачать .torrent

    Скачать торрент-файл бесплатно и на максимальной скорости!

    Как скачивать? · Что такое торрент? · Рейтинг и ограничения

    !ВНИМАНИЕ!
    Сайт не распространяет и не хранит электронные версии произведений, а занимается лишь лишь предоставлением доступа к создаваемому пользователями каталогу ссылок на торрент-файлы, которые содержат только списки хеш-сумм, убедительная просьба с жалобами обращаться напрямую к пользователю. Файлы для обмена на трекере предоставлены пользователями сайта, и администрация не несёт ответственности за их содержание. Просьба не заливать файлы, защищенные авторскими правами, а также файлы нелегального содержания!


    _________________
    [Профиль] [ЛС]
    Показать сообщения:    
    Ответить на тему

    Текущее время: Сегодня, в 00:17

    Часовой пояс: GMT + 2



    Вы не можете начинать темы
    Вы не можете отвечать на сообщения
    Вы не можете редактировать свои сообщения
    Вы не можете удалять свои сообщения
    Вы не можете голосовать в опросах
    Вы не можете прикреплять файлы к сообщениям
    Вы не можете скачивать файлы