BitTorrentTracker PerecTracker.org
BitTorrentTracker PerecTracker.org
    
Регистрация  ·  Вход
 
 · 
Забыли пароль?

  • Нетерпение чувств / Bad Timing (Николас Роуг) [1980, Великобритания, триллер, драма, детектив, BDRip HD (720p), SD (480p)] DVO, AVO, Original + SUB (eng, tur)

    Ответить на тему
     
    Автор Сообщение

    rechyn

    Создавать темы 12-Авг-2015 13:09

           

    [Цитировать]

    Нетерпение чувств / Bad Timing
    "A Terrifying Love Story"
    7.222 / 10
    -Год выпуска: 1980
    Страна: Великобритания
    Жанр: триллер, драма, детектив
    Продолжительность: 129 мин.
    Перевод: Двухголосый закадровый перевод и одноголосый закадровый перевод
    Оригинальная аудиодорожка: Есть
    Cубтитры: Английские полные и турецкие полные
    Режиссёр: Николас Роуг
    Сценарий: Йейл Удофф
    Продюсер: Джереми Томас, Тим Ван Реллим
    Оператор: Энтони Б. Ричмонд
    Композитор: Ричард Хартли
    Художник: Дэвид Брокхёрст, Марит Аллен
    Монтаж: Тони Лосон
    В ролях: Арт Гарфанкел, Тереза Расселл, Харви Кейтель, Денхолм Эллиот, Дэниел Мэсси, Дэна Гиллеспи, Уильям Хуткинс, Юджин Липински, Джордж Рубисек, Стефан Грифф
    Мировая премьера: 12 апреля 1980
    Описание: Весна. Американку Милену Флаэрти привозят в городскую клинику с подозрением на попытку самоубийства. Инспектору Нетусилу поручено расследовать это дело.
    Он допрашивает любовника Милены, профессора психологии Алекса Линдена. Алекс вспоминает историю своих взаимоотношений с Миленой. Где и при каких обстоятельствах безумная страсть могла перерасти в не менее безудержную ненависть?-Качество исходника: BD-Remux 1080p (HDclub)
    Качество: BDRip
    Тип: 480p 720p
    Контейнер: m4v
    Видео: 640x364 анаморф 852x364 at 23.976 fps, MPEG-4 AVC, ~1400 kbps avg
    Видео: 1280x546 at 23.976 fps, MPEG-4 AVC, ~6000 kbps avg
    Аудио#1: Russian: 48 kHz, ААС, 2/0 (L,R), ~128.00 / 192.00 kbps avg |Двухголосый закадровый, П. Гланц и И. Королева|
    Аудио#2: Russian: 48 kHz, ААС, 2/0 (L,R), ~128.00 / 192.00 kbps avg |Одноголосый закадровый, А. Гаврилов|
    Аудио#3: English: 48 kHz, ААС, 2/0 (L,R), ~128.00 / 192.00 kbps avg
    Субтитры №1: English: |Полные|
    Субтитры №2: Turkish: |Полные|-

    из книги «3500 кинорецензий»


    Психологическая криминальная драма (Сергей Кудрявцев 7.5/10)
    Британский режиссёр Николас Роуг («А теперь не смотри», «Человек, который упал на Землю») продолжил свои визуальные эксперименты с человеческим сознанием и непредсказуемыми страстями. Подзаголовок «Наваждение чувств», который был дан картине «Не то время» в американском прокате, точно определяет то, что испытывает главный герой, психиатр Алекс Линден, связавший свою судьбу с молодой девушкой Миленой, которая бежала в Вену из Чехословакии. В их отношениях настолько всё запутано и переплетено, что не поддаётся анализу даже такого здравого рассудка, как у психиатра, поднаторевшего в бесконечных разговорах с пациентами о подавленных желаниях, сексуальной неудовлетворённости, психологической несовместимости и т. д.
    Но в собственной жизни разобраться невыносимо труднее. Как понять: где кончается одержимая любовь и начинается не менее безумная ненависть? Не то время — это постоянное несовпадение по психическим состояниям, по уровню чувств, прыгающих от холодного раздражения до нестерпимого сексуального влечения, которое хочется немедленно, может, в самой грубой форме, осуществить. Закомплексованный психоаналитик, видимо, гордящийся, что практикует на родине Зигмунда Фрейда, всё время попадает не в такт, впросак, ещё туже завязывая узел неразрешимых взаимоотношений. Как почти всегда у Роуга, к борению страстей примешивается мистическая или криминально-детективная история. Зритель, захваченный витиеватой интригой, вынужден разгадывать вместе с полицейским инспектором Нетусилом довольно коварный вопрос: мог ли психиатр убить свою возлюбленную в порыве наваждения? Есть ли у него доказательное алиби?
    Однако не хочется до конца расшифровывать остроумный, типично роуговский финал, когда уже инспектор оказывается в дураках, просчитавшись по поводу алиби Линдена, но и зритель также засомневается в том, что строил правильную гипотезу: а вдруг всё это — лишь плод горячечной фантазии? Возможно, что шарада постановщика на сей раз чересчур мудрёна, хотя он вновь восхищает богатым, щедрым изобразительным рядом и супервиртуозным монтажом. Интересно, что на съёмках этой ленты англичанин Николас Роуг впервые встретился с чувственной, страстной американкой Терезой Рассел, которая стала его любимой актрисой в 80-е годы, а также и женой, несмотря на существенную разницу в возрасте — целых 28,5 лет!
    1990

    -

    iTunes Meta Tags for country us

    Name: Bad Timing
    Artist: Nicolas Roeg
    Genre: Drama
    Release Date: 1980-04-12T08:00:00Z
    Description: Весна. Американку Милену Флаэрти привозят в городскую клинику с подозрением на попытку самоубийства. Инспектору Нетусилу поручено расследовать это дело...
    Long Description: Весна. Американку Милену Флаэрти привозят в городскую клинику с подозрением на попытку самоубийства. Инспектору Нетусилу поручено расследовать это дело.
    Он допрашивает любовника Милены, профессора психологии Алекса Линдена. Алекс вспоминает историю своих взаимоотношений с Миленой. Где и при каких обстоятельствах безумная страсть могла перерасти в не менее безудержную ненависть?
    Rating: R
    Studio: The Criterion Collection
    Cast: Арт Гарфанкел, Тереза Расселл, Харви Кейтель, Денхолм Эллиот, Дэниел Мэсси, Дэна Гиллеспи, Уильям Хуткинс, Юджин Липински, Джордж Рубисек, Стефан Грифф
    Director: Николас Роуг
    Producers: Джереми Томас, Тим Ван Реллим
    Screenwriters: Йейл Удофф
    Copyright: © 1980 Rank Film Productions Ltd.
    contentID: 481883892
    XID: Apple:vendor_id:1980-8846
    Sort Name: Bad Timing

    MediaInfo 480p Release

    General
    Complete name : Bad Timing.m4v
    Format : MPEG-4
    Codec ID : M4V
    File size : 1.48 GiB
    Duration : 2h 2mn
    Overall bit rate mode : Variable
    Overall bit rate : 1 738 Kbps
    Movie name : Bad Timing
    Performer : Nicolas Roeg
    Director : Николас Роуг
    Actor : Арт Гарфанкел / Тереза Расселл / Харви Кейтель / Денхолм Эллиот / Дэниел Мэсси / Дэна Гиллеспи / Уильям Хуткинс / Юджин Липински / Джордж Рубисек / Стефан Грифф
    Screenplay by : Йейл Удофф
    Producer : Джереми Томас / Тим Ван Реллим
    Production studio : The Criterion Collection
    Genre : Drama
    ContentType : Short Film
    Description : Весна. Американку Милену Флаэрти привозят в городскую клинику с подозрением на попытку самоубийства. Инспектору Нетусилу поручено расследовать это дело...
    Recorded date : UTC 1980-04-12 08:00:00
    Encoded date : UTC 2015-08-11 10:18:05
    Tagged date : UTC 2015-08-11 10:22:24
    Copyright : © 1980 Rank Film Productions Ltd.
    Cover : Yes
    Rating : None
    Title/Sort : Bad Timing
    LongDescription : Весна. Американку Милену Флаэрти привозят в городскую клинику с подозрением на попытку самоубийства. Инспектору Нетусилу поручено расследовать это дело. / Он допрашивает любовника Милены, профессора психологии Алекса Линдена. Алекс вспоминает историю своих взаимоотношений с Миленой. Где и при каких обстоятельствах безумная страсть могла перерасти в не менее безудержную ненависть?
    AppleStoreCatalogID : 481883892
    Vendor : Apple:vendor_id:1980-8846
    ContentRating : mpaa|R|400|
    Video #1
    ID : 1
    Format : AVC
    Format/Info : Advanced Video Codec
    Format profile : Baseline@L3
    Format settings, CABAC : No
    Format settings, ReFrames : 2 frames
    Codec ID : avc1
    Codec ID/Info : Advanced Video Coding
    Duration : 2h 2mn
    Bit rate : 1 400 Kbps
    Width : 640 pixels
    Height : 364 pixels
    Display aspect ratio : 2.35:1
    Original display aspect ratio : 2.35:1
    Frame rate mode : Variable
    Frame rate : 23.976 fps
    Minimum frame rate : 23.974 fps
    Maximum frame rate : 23.981 fps
    Color space : YUV
    Chroma subsampling : 4:2:0
    Bit depth : 8 bits
    Scan type : Progressive
    Bits/(Pixel*Frame) : 0.251
    Stream size : 1.19 GiB (81%)
    Title : Main Program
    Writing library : x264 core 130 r2273 b3065e6
    Encoding settings : cabac=0 / ref=2 / deblock=1:0:0 / analyse=0x1:0x111 / me=umh / subme=6 / psy=1 / psy_rd=1.00:0.00 / mixed_ref=1 / me_range=16 / chroma_me=1 / trellis=0 / 8x8dct=0 / cqm=0 / deadzone=21,11 / fast_pskip=1 / chroma_qp_offset=-2 / threads=18 / lookahead_threads=2 / sliced_threads=0 / nr=0 / decimate=1 / interlaced=0 / bluray_compat=0 / constrained_intra=0 / bframes=0 / weightp=0 / keyint=240 / keyint_min=24 / scenecut=40 / intra_refresh=0 / rc_lookahead=40 / rc=2pass / mbtree=1 / bitrate=1400 / ratetol=1.0 / qcomp=0.60 / qpmin=0 / qpmax=69 / qpstep=4 / cplxblur=20.0 / qblur=0.5 / vbv_maxrate=5000 / vbv_bufsize=5000 / nal_hrd=none / ip_ratio=1.40 / aq=1:1.00
    Language : English
    Encoded date : UTC 2015-08-11 10:18:05
    Tagged date : UTC 2015-08-11 10:18:11
    Color range : Limited
    Color primaries : BT.709
    Transfer characteristics : BT.709
    Matrix coefficients : BT.709
    Video #2
    ID : 8
    Format : JPEG
    Codec ID : jpeg
    Duration : 2h 2mn
    Bit rate mode : Variable
    Bit rate : 497 bps
    Width : 640 pixels
    Height : 273 pixels
    Display aspect ratio : 2.35:1
    Frame rate mode : Variable
    Frame rate : 0.002 fps
    Minimum frame rate : 0.001 fps
    Maximum frame rate : 0.003 fps
    Color space : YUV
    Chroma subsampling : 4:2:0
    Bit depth : 8 bits
    Compression mode : Lossy
    Bits/(Pixel*Frame) : 1.422
    Stream size : 364 KiB (0%)
    Title : Chapter Images
    Language : English
    Encoded date : UTC 2015-08-11 10:18:19
    Tagged date : UTC 2015-08-11 10:18:19
    Audio #1
    ID : 2
    Format : AAC
    Format/Info : Advanced Audio Codec
    Format profile : LC
    Codec ID : 40
    Duration : 2h 2mn
    Bit rate mode : Variable
    Bit rate : 105 Kbps
    Maximum bit rate : 120 Kbps
    Channel(s) : 2 channels
    Channel positions : Front: L R
    Sampling rate : 48.0 KHz
    Compression mode : Lossy
    Stream size : 91.8 MiB (6%)
    Title : Russian DVO P.Glanz & I.Koroleva Stereo
    Language : Russian
    Encoded date : UTC 2015-08-11 10:18:05
    Tagged date : UTC 2015-08-11 10:18:16
    Audio #2
    ID : 3
    Format : AAC
    Format/Info : Advanced Audio Codec
    Format profile : LC
    Codec ID : 40
    Duration : 2h 2mn
    Bit rate mode : Variable
    Bit rate : 117 Kbps
    Maximum bit rate : 134 Kbps
    Channel(s) : 2 channels
    Channel positions : Front: L R
    Sampling rate : 48.0 KHz
    Compression mode : Lossy
    Stream size : 102 MiB (7%)
    Title : Russian AVO A.Gavrilov Stereo
    Language : Russian
    Encoded date : UTC 2015-08-11 10:18:05
    Tagged date : UTC 2015-08-11 10:18:16
    Audio #3
    ID : 4
    Format : AAC
    Format/Info : Advanced Audio Codec
    Format profile : LC
    Codec ID : 40
    Duration : 2h 2mn
    Bit rate mode : Variable
    Bit rate : 107 Kbps
    Maximum bit rate : 203 Kbps
    Channel(s) : 2 channels
    Channel positions : Front: L R
    Sampling rate : 48.0 KHz
    Compression mode : Lossy
    Stream size : 93.5 MiB (6%)
    Title : English Stereo
    Language : English
    Encoded date : UTC 2015-08-11 10:18:05
    Tagged date : UTC 2015-08-11 10:18:16
    Text #1
    ID : 5
    Format : Timed Text
    Muxing mode : sbtl
    Codec ID : tx3g
    Duration : 2h 1mn
    Bit rate mode : Variable
    Bit rate : 50 bps
    Stream size : 44.1 KiB (0%)
    Title : English SDH Subtitle
    Language : English
    Encoded date : UTC 2015-08-11 10:18:05
    Tagged date : UTC 2015-08-11 10:18:05
    Text #2
    ID : 6
    Format : Timed Text
    Muxing mode : sbtl
    Codec ID : tx3g
    Duration : 2h 1mn
    Bit rate mode : Variable
    Bit rate : 61 bps
    Stream size : 54.5 KiB (0%)
    Title : Turkish Subtitle
    Language : Turkish
    Encoded date : UTC 2015-08-11 10:18:05
    Tagged date : UTC 2015-08-11 10:18:05
    Menu #1
    00:00:00.000 : 1
    00:06:18.377 : 2
    00:15:51.951 : 3
    00:28:29.708 : 4
    00:34:40.077 : 5
    00:43:54.632 : 6
    00:54:57.293 : 7
    01:09:40.176 : 8
    01:23:18.827 : 9
    01:39:45.979 : 10
    01:46:57.411 : 11
    01:55:12.363 : 12
    Menu #2
    ID : 7
    Codec ID : text
    Duration : 2h 2mn
    Title : Chapter Titles
    Language : English
    Encoded date : UTC 2015-08-11 10:18:16
    Tagged date : UTC 2015-08-11 10:18:16
    00:00:00.000 : 1
    00:06:18.377 : 2
    00:15:51.951 : 3
    00:28:29.708 : 4
    00:34:40.077 : 5
    00:43:54.632 : 6
    00:54:57.293 : 7
    01:09:40.176 : 8
    01:23:18.827 : 9
    01:39:45.979 : 10
    01:46:57.411 : 11
    01:55:12.363 : 12
    Bit rate mode : VBR

    MediaInfo 720p Release

    General
    Complete name : Bad Timing (HD).m4v
    Format : MPEG-4
    Codec ID : M4V
    File size : 5.53 GiB
    Duration : 2h 2mn
    Overall bit rate mode : Variable
    Overall bit rate : 6 480 Kbps
    Movie name : Bad Timing
    Performer : Nicolas Roeg
    Director : Николас Роуг
    Actor : Арт Гарфанкел / Тереза Расселл / Харви Кейтель / Денхолм Эллиот / Дэниел Мэсси / Дэна Гиллеспи / Уильям Хуткинс / Юджин Липински / Джордж Рубисек / Стефан Грифф
    Screenplay by : Йейл Удофф
    Producer : Джереми Томас / Тим Ван Реллим
    Production studio : The Criterion Collection
    Genre : Drama
    ContentType : Short Film
    Description : Весна. Американку Милену Флаэрти привозят в городскую клинику с подозрением на попытку самоубийства. Инспектору Нетусилу поручено расследовать это дело...
    Recorded date : UTC 1980-04-12 08:00:00
    Encoded date : UTC 2015-08-11 12:52:31
    Tagged date : UTC 2015-08-11 12:58:25
    Copyright : © 1980 Rank Film Productions Ltd.
    Cover : Yes
    Rating : None
    Title/Sort : Bad Timing
    LongDescription : Весна. Американку Милену Флаэрти привозят в городскую клинику с подозрением на попытку самоубийства. Инспектору Нетусилу поручено расследовать это дело. / Он допрашивает любовника Милены, профессора психологии Алекса Линдена. Алекс вспоминает историю своих взаимоотношений с Миленой. Где и при каких обстоятельствах безумная страсть могла перерасти в не менее безудержную ненависть?
    HDVideo : Yes
    AppleStoreCatalogID : 481883892
    Vendor : Apple:vendor_id:1980-8846
    ContentRating : mpaa|R|400|
    Video #1
    ID : 1
    Format : AVC
    Format/Info : Advanced Video Codec
    Format profile : High@L3.1
    Format settings, CABAC : No
    Format settings, ReFrames : 3 frames
    Codec ID : avc1
    Codec ID/Info : Advanced Video Coding
    Duration : 2h 2mn
    Source duration : 2h 2mn
    Bit rate : 6 000 Kbps
    Width : 1 280 pixels
    Height : 546 pixels
    Display aspect ratio : 2.35:1
    Frame rate mode : Variable
    Frame rate : 23.976 fps
    Minimum frame rate : 23.974 fps
    Maximum frame rate : 23.981 fps
    Color space : YUV
    Chroma subsampling : 4:2:0
    Bit depth : 8 bits
    Scan type : Progressive
    Bits/(Pixel*Frame) : 0.358
    Stream size : 5.11 GiB (92%)
    Source stream size : 5.11 GiB (92%)
    Title : Main Program
    Writing library : x264 core 130 r2273 b3065e6
    Encoding settings : cabac=0 / ref=3 / deblock=1:-3:-2 / analyse=0x3:0x113 / me=umh / subme=9 / psy=1 / psy_rd=0.80:0.25 / mixed_ref=1 / me_range=32 / chroma_me=1 / trellis=0 / 8x8dct=1 / cqm=0 / deadzone=6,6 / fast_pskip=0 / chroma_qp_offset=-2 / threads=18 / lookahead_threads=1 / sliced_threads=0 / nr=0 / decimate=0 / interlaced=0 / bluray_compat=0 / constrained_intra=0 / bframes=3 / b_pyramid=0 / b_adapt=2 / b_bias=0 / direct=1 / weightb=0 / open_gop=0 / weightp=0 / keyint=240 / keyint_min=24 / scenecut=40 / intra_refresh=0 / rc_lookahead=40 / rc=2pass / mbtree=1 / bitrate=6000 / ratetol=1.0 / qcomp=0.80 / qpmin=0 / qpmax=69 / qpstep=4 / cplxblur=20.0 / qblur=0.5 / vbv_maxrate=9500 / vbv_bufsize=9500 / nal_hrd=none / ip_ratio=1.10 / aq=1:0.50
    Language : English
    Encoded date : UTC 2015-08-11 12:52:31
    Tagged date : UTC 2015-08-11 12:52:45
    Color range : Limited
    Color primaries : BT.709
    Transfer characteristics : BT.709
    Matrix coefficients : BT.709
    Video #2
    ID : 8
    Format : JPEG
    Codec ID : jpeg
    Duration : 2h 2mn
    Bit rate mode : Variable
    Bit rate : 556 bps
    Width : 640 pixels
    Height : 273 pixels
    Display aspect ratio : 2.35:1
    Frame rate mode : Variable
    Frame rate : 0.002 fps
    Minimum frame rate : 0.001 fps
    Maximum frame rate : 0.003 fps
    Color space : YUV
    Chroma subsampling : 4:2:0
    Bit depth : 8 bits
    Compression mode : Lossy
    Bits/(Pixel*Frame) : 1.591
    Stream size : 407 KiB (0%)
    Title : Chapter Images
    Language : English
    Encoded date : UTC 2015-08-11 12:53:01
    Tagged date : UTC 2015-08-11 12:53:01
    Audio #1
    ID : 2
    Format : AAC
    Format/Info : Advanced Audio Codec
    Format profile : LC
    Codec ID : 40
    Duration : 2h 2mn
    Bit rate mode : Variable
    Bit rate : 148 Kbps
    Maximum bit rate : 167 Kbps
    Channel(s) : 2 channels
    Channel positions : Front: L R
    Sampling rate : 48.0 KHz
    Compression mode : Lossy
    Stream size : 129 MiB (2%)
    Title : Russian DVO P.Glanz & I.Koroleva Stereo
    Language : Russian
    Encoded date : UTC 2015-08-11 12:52:31
    Tagged date : UTC 2015-08-11 12:52:57
    Audio #2
    ID : 3
    Format : AAC
    Format/Info : Advanced Audio Codec
    Format profile : LC
    Codec ID : 40
    Duration : 2h 2mn
    Bit rate mode : Variable
    Bit rate : 177 Kbps
    Maximum bit rate : 203 Kbps
    Channel(s) : 2 channels
    Channel positions : Front: L R
    Sampling rate : 48.0 KHz
    Compression mode : Lossy
    Stream size : 155 MiB (3%)
    Title : Russian AVO A.Gavrilov Stereo
    Language : Russian
    Encoded date : UTC 2015-08-11 12:52:31
    Tagged date : UTC 2015-08-11 12:52:57
    Audio #3
    ID : 4
    Format : AAC
    Format/Info : Advanced Audio Codec
    Format profile : LC
    Codec ID : 40
    Duration : 2h 2mn
    Bit rate mode : Variable
    Bit rate : 156 Kbps
    Maximum bit rate : 289 Kbps
    Channel(s) : 2 channels
    Channel positions : Front: L R
    Sampling rate : 48.0 KHz
    Compression mode : Lossy
    Stream size : 136 MiB (2%)
    Title : English Stereo
    Language : English
    Encoded date : UTC 2015-08-11 12:52:31
    Tagged date : UTC 2015-08-11 12:52:57
    Text #1
    ID : 5
    Format : Timed Text
    Muxing mode : sbtl
    Codec ID : tx3g
    Duration : 2h 1mn
    Bit rate mode : Variable
    Bit rate : 50 bps
    Stream size : 44.1 KiB (0%)
    Title : English SDH Subtitle
    Language : English
    Encoded date : UTC 2015-08-11 12:52:31
    Tagged date : UTC 2015-08-11 12:52:57
    Text #2
    ID : 6
    Format : Timed Text
    Muxing mode : sbtl
    Codec ID : tx3g
    Duration : 2h 1mn
    Bit rate mode : Variable
    Bit rate : 61 bps
    Stream size : 54.4 KiB (0%)
    Title : Turkish Subtitle
    Language : Turkish
    Encoded date : UTC 2015-08-11 12:52:31
    Tagged date : UTC 2015-08-11 12:52:57
    Menu #1
    00:00:00.000 : 1
    00:06:18.377 : 2
    00:15:51.951 : 3
    00:28:29.708 : 4
    00:34:40.077 : 5
    00:43:54.632 : 6
    00:54:57.293 : 7
    01:09:40.176 : 8
    01:23:18.827 : 9
    01:39:45.979 : 10
    01:46:57.411 : 11
    01:55:12.363 : 12
    Menu #2
    ID : 7
    Codec ID : text
    Duration : 2h 2mn
    Title : Chapter Titles
    Language : English
    Encoded date : UTC 2015-08-11 12:52:57
    Tagged date : UTC 2015-08-11 12:52:57
    00:00:00.000 : 1
    00:06:18.377 : 2
    00:15:51.951 : 3
    00:28:29.708 : 4
    00:34:40.077 : 5
    00:43:54.632 : 6
    00:54:57.293 : 7
    01:09:40.176 : 8
    01:23:18.827 : 9
    01:39:45.979 : 10
    01:46:57.411 : 11
    01:55:12.363 : 12
    Bit rate mode : VBR

    x264 лог 480p Release

    HandBrakeCLI -i "/BAD_TIMING_1980_REMUX_HDCLUB/BDMV/STREAM/00000.m2ts" -t 1 -o Bad.Timing.480p.eng.m4v -f mp4 -I -O -w 640 -l 364 --crop 132:128:0:0 --custom-anamorphic --modulus 4 --pixel-aspect 852:640 -e x264 -b 1400 -2 -a none -x cabac=0:ref=2:me=umh:bframes=0:weightp=0:subq=6:8x8dct=0:trellis=0:vbv-maxrate=5000:vbv-bufsize=5000 --verbose=1
    x264 [info]: frame I:2077  Avg QP:18.22  size: 30050  PSNR Mean Y:44.82 U:49.98 V:52.33 Avg:45.96 Global:45.62
    x264 [info]: frame P:173652 Avg QP:20.52  size:  7026  PSNR Mean Y:42.20 U:48.05 V:49.86 Avg:43.41 Global:43.16
    x264 [info]: mb I  I16..4: 19.5%  0.0% 80.5%
    x264 [info]: mb P  I16..4:  0.5%  0.0%  1.9%  P16..4: 51.0% 24.4% 10.0%  0.0%  0.0%    skip:12.2%
    x264 [info]: coded y,uvDC,uvAC intra: 86.4% 76.9% 45.5% inter: 32.8% 25.4% 1.5%
    x264 [info]: i16 v,h,dc,p: 33% 12% 14% 42%
    x264 [info]: i4 v,h,dc,ddl,ddr,vr,hd,vl,hu: 25% 12% 19%  7%  8%  9%  6%  8%  5%
    x264 [info]: i8c dc,h,v,p: 54% 14% 25%  7%
    x264 [info]: ref P L0: 71.6% 28.4%
    x264 [info]: SSIM Mean Y:0.9685869 (15.029db)
    x264 [info]: PSNR Mean Y:42.232 U:48.072 V:49.891 Avg:43.439 Global:43.187 kb/s:1399.93

    x264 лог 720p Release

    HandBrakeCLI -i /BAD_TIMING_1980_REMUX_HDCLUB/BDMV/STREAM/00000.m2ts -t 1 -o Bad.Timing.720p.eng.m4v -f mp4 -4 -O -w 1280 -l 546 --crop 132:128:0:0 --modulus 2 -e x264 -b 6000 -2 -a none -x cabac=0:ref=3:me=umh:b-pyramid=none:b-adapt=2:weightb=0:trellis=0:weightp=0:vbv-maxrate=9500:vbv-bufsize=9500:subq=9:merange=32:deblock=-3,-2:qcomp=0.80:qpmin=0:qpmax=69:fast_pskip=0:aq-strength=0.5:no-dct-decimate=1:psy-rd=0.80,0.25:ipratio=1.1:pbratio=1.1:deadzone-inter=6:deadzone-intra=6 --verbose=1
    x264 [info]: frame I:1478  Avg QP:21.28  size: 71610  PSNR Mean Y:43.42 U:48.49 V:51.57 Avg:44.65 Global:44.47
    x264 [info]: frame P:53125 Avg QP:22.17  size: 53769  PSNR Mean Y:42.22 U:48.58 V:50.79 Avg:43.52 Global:43.31
    x264 [info]: frame B:121126 Avg QP:23.30  size: 20838  PSNR Mean Y:40.93 U:48.42 V:50.76 Avg:42.33 Global:42.11
    x264 [info]: consecutive B-frames:  1.4%  5.9% 42.2% 50.5%
    x264 [info]: mb I  I16..4:  4.6% 70.8% 24.6%
    x264 [info]: mb P  I16..4:  0.9% 12.6%  3.0%  P16..4: 44.3% 28.1% 10.3%  0.0%  0.0%    skip: 0.7%
    x264 [info]: mb B  I16..4:  0.1%  2.1%  0.5%  B16..8: 33.8% 12.2%  2.0%  direct: 7.6%  skip:41.7%  L0:34.4% L1:37.2% BI:28.5%
    x264 [info]: 8x8 transform intra:75.9% inter:40.1%
    x264 [info]: coded y,uvDC,uvAC intra: 93.2% 61.2% 19.9% inter: 47.2% 17.1% 2.4%
    x264 [info]: i16 v,h,dc,p: 33% 12%  9% 46%
    x264 [info]: i8 v,h,dc,ddl,ddr,vr,hd,vl,hu: 11%  7%  9% 11% 15% 13% 13% 10% 10%
    x264 [info]: i4 v,h,dc,ddl,ddr,vr,hd,vl,hu: 30%  6%  3%  9% 13% 12% 11%  9%  7%
    x264 [info]: i8c dc,h,v,p: 51% 17% 23%  9%
    x264 [info]: ref P L0: 63.2% 22.5% 14.2%
    x264 [info]: ref B L0: 79.9% 20.1%
    x264 [info]: SSIM Mean Y:0.9506043 (13.063db)
    x264 [info]: PSNR Mean Y:41.345 U:48.471 V:50.772 Avg:42.705 Global:42.456 kb/s:5988.35

    Скриншоты 480p Release

    Скриншоты 720p Release

    -

    Релиз подготовлен для просмотра на Apple TV, iPad, iPhone, iPod Touch.
    Для просмотра данного релиза на компьютере с ОС Windows рекомендуется использовать VLC media player
    Скачать .torrent

    Скачать торрент-файл бесплатно и на максимальной скорости!

    Как скачивать? · Что такое торрент? · Рейтинг и ограничения

    !ВНИМАНИЕ!
    Сайт не распространяет и не хранит электронные версии произведений, а занимается лишь лишь предоставлением доступа к создаваемому пользователями каталогу ссылок на торрент-файлы, которые содержат только списки хеш-сумм, убедительная просьба с жалобами обращаться напрямую к пользователю. Файлы для обмена на трекере предоставлены пользователями сайта, и администрация не несёт ответственности за их содержание. Просьба не заливать файлы, защищенные авторскими правами, а также файлы нелегального содержания!


    _________________
    [Профиль] [ЛС]
    Показать сообщения:    
    Ответить на тему

    Текущее время: Сегодня, в 20:27

    Часовой пояс: GMT + 2



    Вы не можете начинать темы
    Вы не можете отвечать на сообщения
    Вы не можете редактировать свои сообщения
    Вы не можете удалять свои сообщения
    Вы не можете голосовать в опросах
    Вы не можете прикреплять файлы к сообщениям
    Вы не можете скачивать файлы