Register  ·  Log in
Forgot password?

  • Пингвины Мадагаскара / Penguins of Madagascar (Эрик Дарнелл, Саймон Дж. Смит / Eric Darnell, Simon J. Smith) [2014, мультфильм, приключения, комедия, BDRip] Dub (Невафильм)

    Reply to topic
    Author Message


    Post 12-Aug-2015 14:09



    Пингвины Мадагаскара / Penguins of Madagascar
    Страна: США
    Жанр: Мультфильм, приключения, комедия
    Продолжительность: 01:31:49
    Год выпуска: 2014
    Перевод: Профессиональный (дублированный) - Невафильм
    Роли дублировали: Анатолий Дубанов, Андрей Шамин, Иван Паршин, Вадим Романов, Максим Матвеев
    Режиссёр: Эрик Дарнелл, Саймон Дж. Смит / Eric Darnell, Simon J. Smith
    Описание: Четвёрка пингвинов-шпионов - Шкипер, Ковальски, Рико и Прапор - объединяется с командой «Северный ветер», помогающей беззащитным животным. Им предстоит остановить злобного осьминога, доктора Октавиуса Брайна, желающего уничтожить этот мир...
    Доп. информация:

    Формат: AVI
    Качество: BDRip (Blu-Ray)
    Видео кодек: XviD
    Аудио кодек: MP3
    Видео: XviD, 656x352, 23.976fps, 1000kbps
    Аудио: MPEG Layer 3, 2ch, 48000Hz, 128kbps


    Complete name : Pingviny.Madagaskara.2014.D.BDRip.700.MediaClub.CurHaJI.avi
    Format : AVI
    Format/Info : Audio Video Interleave
    File size : 747 MiB
    Duration : 1h 31mn
    Overall bit rate : 1 137 Kbps
    Movie name : Pingviny.Madagaskara.2014.D.BDRip.700.MediaClub.CurHaJI
    Writing application : Lavf53.13.0
    Writing library : VirtualDub build 35491/release
    ID : 0
    Format : MPEG-4 Visual
    Format profile : Advanced Simple@L5
    Format settings, BVOP : 2
    Format settings, QPel : No
    Format settings, GMC : No warppoints
    Format settings, Matrix : Custom
    Codec ID : XVID
    Codec ID/Hint : XviD
    Duration : 1h 31mn
    Bit rate : 1 000 Kbps
    Width : 656 pixels
    Height : 352 pixels
    Display aspect ratio : 1.85:1
    Frame rate : 23.976 fps
    Color space : YUV
    Chroma subsampling : 4:2:0
    Bit depth : 8 bits
    Scan type : Progressive
    Compression mode : Lossy
    Bits/(Pixel*Frame) : 0.181
    Stream size : 657 MiB (88%)
    Writing library : XviD 64
    ID : 1
    Format : MPEG Audio
    Format version : Version 1
    Format profile : Layer 3
    Codec ID : 55
    Codec ID/Hint : MP3
    Duration : 1h 31mn
    Bit rate mode : Constant
    Bit rate : 128 Kbps
    Channel(s) : 2 channels
    Sampling rate : 48.0 KHz
    Compression mode : Lossy
    Stream size : 84.1 MiB (11%)
    Alignment : Split accross interleaves
    Interleave, duration : 42 ms (1.00 video frame)
    Interleave, preload duration : 500 ms
    Writing library : L3.99r
    Encoding settings : -m s -V 4 -q 2 -lowpass 17 -b 128


    Download .torrent

    Download free and at maximum speed!

    How to Download? · What is a torrent? · Ratings and Limitations

    The site does not extend and does not store electronic(digital) versions of products, and only gives access to a reference catalogue created by users on torrent-files which contain only lists of the hash-sums, the earnest entreaty, with complaints(abuse) to access directly to the user. Files for an exchange on tracker are given by users of a site, and the administration does not bear the responsibility for their maintenance. The request to not fill in the files protected by copyrights, and also files of the illegal maintenance!

    [Profile] [PM]
    Display posts from previous:    
    Reply to topic

    The time now is: Today 21:11

    All times are GMT + 3 Hours

    You cannot post new topics in this forum
    You cannot reply to topics in this forum
    You cannot edit your posts in this forum
    You cannot delete your posts in this forum
    You cannot vote in polls in this forum
    You cannot attach files in this forum
    You cannot download files in this forum