BitTorrentTracker PerecTracker.org
BitTorrentTracker PerecTracker.org
    
Регистрация  ·  Вход
 
 · 
Забыли пароль?

  • Пингвины Мадагаскара / Penguins of Madagascar (Эрик Дарнелл, Саймон Дж. Смит / Eric Darnell, Simon J. Smith) [2014, мультфильм, приключения, комедия, BDRip] Dub (Невафильм)

    Ответить на тему
     
    Автор Сообщение

    rechyn

    Создавать темы 12-Авг-2015 13:09

           

    [Цитировать]

    Пингвины Мадагаскара / Penguins of Madagascar
    Страна: США
    Жанр: Мультфильм, приключения, комедия
    Продолжительность: 01:31:49
    Год выпуска: 2014
    Перевод: Профессиональный (дублированный) - Невафильм
    Роли дублировали: Анатолий Дубанов, Андрей Шамин, Иван Паршин, Вадим Романов, Максим Матвеев
    Режиссёр: Эрик Дарнелл, Саймон Дж. Смит / Eric Darnell, Simon J. Smith
    Описание: Четвёрка пингвинов-шпионов - Шкипер, Ковальски, Рико и Прапор - объединяется с командой «Северный ветер», помогающей беззащитным животным. Им предстоит остановить злобного осьминога, доктора Октавиуса Брайна, желающего уничтожить этот мир...
    Доп. информация:

    Формат: AVI
    Качество: BDRip (Blu-Ray)
    Видео кодек: XviD
    Аудио кодек: MP3
    Видео: XviD, 656x352, 23.976fps, 1000kbps
    Аудио: MPEG Layer 3, 2ch, 48000Hz, 128kbps

    MediaInfo

    General
    Complete name : Pingviny.Madagaskara.2014.D.BDRip.700.MediaClub.CurHaJI.avi
    Format : AVI
    Format/Info : Audio Video Interleave
    File size : 747 MiB
    Duration : 1h 31mn
    Overall bit rate : 1 137 Kbps
    Movie name : Pingviny.Madagaskara.2014.D.BDRip.700.MediaClub.CurHaJI
    Writing application : Lavf53.13.0
    Writing library : VirtualDub build 35491/release
    Video
    ID : 0
    Format : MPEG-4 Visual
    Format profile : Advanced Simple@L5
    Format settings, BVOP : 2
    Format settings, QPel : No
    Format settings, GMC : No warppoints
    Format settings, Matrix : Custom
    Codec ID : XVID
    Codec ID/Hint : XviD
    Duration : 1h 31mn
    Bit rate : 1 000 Kbps
    Width : 656 pixels
    Height : 352 pixels
    Display aspect ratio : 1.85:1
    Frame rate : 23.976 fps
    Color space : YUV
    Chroma subsampling : 4:2:0
    Bit depth : 8 bits
    Scan type : Progressive
    Compression mode : Lossy
    Bits/(Pixel*Frame) : 0.181
    Stream size : 657 MiB (88%)
    Writing library : XviD 64
    Audio
    ID : 1
    Format : MPEG Audio
    Format version : Version 1
    Format profile : Layer 3
    Codec ID : 55
    Codec ID/Hint : MP3
    Duration : 1h 31mn
    Bit rate mode : Constant
    Bit rate : 128 Kbps
    Channel(s) : 2 channels
    Sampling rate : 48.0 KHz
    Compression mode : Lossy
    Stream size : 84.1 MiB (11%)
    Alignment : Split accross interleaves
    Interleave, duration : 42 ms (1.00 video frame)
    Interleave, preload duration : 500 ms
    Writing library : L3.99r
    Encoding settings : -m s -V 4 -q 2 -lowpass 17 -b 128

    Скриншоты

    Скачать .torrent

    Скачать торрент-файл бесплатно и на максимальной скорости!

    Как скачивать? · Что такое торрент? · Рейтинг и ограничения

    !ВНИМАНИЕ!
    Сайт не распространяет и не хранит электронные версии произведений, а занимается лишь лишь предоставлением доступа к создаваемому пользователями каталогу ссылок на торрент-файлы, которые содержат только списки хеш-сумм, убедительная просьба с жалобами обращаться напрямую к пользователю. Файлы для обмена на трекере предоставлены пользователями сайта, и администрация не несёт ответственности за их содержание. Просьба не заливать файлы, защищенные авторскими правами, а также файлы нелегального содержания!


    _________________
    [Профиль] [ЛС]
    Показать сообщения:    
    Ответить на тему

    Текущее время: Сегодня, в 21:51

    Часовой пояс: GMT + 2



    Вы не можете начинать темы
    Вы не можете отвечать на сообщения
    Вы не можете редактировать свои сообщения
    Вы не можете удалять свои сообщения
    Вы не можете голосовать в опросах
    Вы не можете прикреплять файлы к сообщениям
    Вы не можете скачивать файлы