BitTorrentTracker PerecTracker.org
BitTorrentTracker PerecTracker.org
    
Регистрация  ·  Вход
 
 · 
Забыли пароль?

  • Пустыня / What\'s Left of Us / The Desert / El Desierto (Кристоф Бел / Christoph Behl) [2013, Аргентина, фантастика, Драма, Постапокалипсис, DVDRip-AVC] Sub Rus + Original Spa

    Ответить на тему
     
    Автор Сообщение

    Light

    Создавать темы 12-Авг-2015 13:08

           

    [Цитировать]

    Пустыня / What's Left of Us / The Desert / El Desierto
    Страна: Аргентина
    Жанр: Фантастика, Драма, Постапокалипсис
    Год выпуска: 2013
    Продолжительность: 01:40:11
    Перевод: Субтитры (Chillerama)
    Cубтитры: Русские
    Оригинальная аудиодорожка: Испанский
    Режиссер: Кристоф Бел / Christoph Behl
    В ролях: Виктория Альмейда, Лаутаро Дельгадо, Лукас Лагре, Вильям Просюк
    Описание: Трое — Аксель, Ана и Джонатан — живут в бэушном бараке примерных 90-х: по ближайшим закоулкам блуждают зомби, насчет остального мира толком ничего неизвестно. Живут идиллически, играя в правду или вызов, морской бой и восьмибитку. Аксель методично покрывает себя мухообразными тату, Джонатан дурачится, ковыряясь в микросхемах, Ана придумывает застреленным особям греческие имена. Однажды цепной зомби Пифагор увидит, как в этом раю произойдет взрыв. Поочередно документируя свои чувства на магнитофон, вынесенный в отдельный сарай, вымышленная семья потакает рефлексам интроверта хранить определенные тайны. Все могут делать что угодно, но никто не может смотреть чужие записи: это личные жизни, и вход в них строго по паспорту. То, что главные причины несчастий — в собственной комнате, а не где-то за стеной, не новость совершенно, но экранизаций подобных тезисов в последнюю очередь ожидаешь от программного номера «Фрайтфеста». Зашитую в хоррор-кокон психодраму немецкий аргентинец Бел двигает вперед по большей части за счет сложной химии трех личностей и разлитого по углам экстракта меланхолии. Все хорошие, все грустные, всех любишь, но в том, что утопия ни с того ни с сего начала мутировать в греческую трагедию по мотивам Sex, Lies and Videotape, вряд ли кто-то виноват — просто так сложилось.

    Сэмпл: http://sendfile.su/1143107
    Качество видео: DVDRip
    Формат видео: MKV
    Видео: MPEG-4 AVC, 720x392 (1:85:1), 23.976 fps, 1800 kbps
    Аудио: AC3, 48.0 KHz, 384 kbps, 24 bits, 6 ch

    MediaInfo

    General
    Unique ID : 247742271299327809060322848879986593387 (0xBA616D06611058348155B2D1A9CBCE6B)
    Complete name : R:\Distribution\El Desierto (2014).mkv
    Format : Matroska
    Format version : Version 4 / Version 2
    File size : 1.51 GiB
    Duration : 1h 40mn
    Overall bit rate : 2 158 Kbps
    Encoded date : UTC 2015-08-04 11:33:26
    Writing application : mkvmerge v7.8.0 ('River Man') 32bit built on Mar 27 2015 16:18:02
    Writing library : libebml v1.3.1 + libmatroska v1.4.2
    _STATISTICS_WRITING_APP : mkvmerge v7.8.0 ('River Man') 32bit built on Mar 27 2015 16:18:02
    _STATISTICS_WRITING_DATE_UTC : 2015-08-04 11:33:26
    _STATISTICS_TAGS : BPS DURATION NUMBER_OF_FRAMES NUMBER_OF_BYTES
    DURATION : 01:29:43.516000000
    NUMBER_OF_FRAMES : 744
    NUMBER_OF_BYTES : 30782
    Video
    ID : 1
    Format : AVC
    Format/Info : Advanced Video Codec
    Format profile : High@L4.0
    Format settings, CABAC : Yes
    Format settings, ReFrames : 4 frames
    Codec ID : V_MPEG4/ISO/AVC
    Duration : 1h 40mn
    Bit rate : 1 800 Kbps
    Width : 720 pixels
    Height : 392 pixels
    Display aspect ratio : 1.85:1
    Frame rate mode : Constant
    Frame rate : 23.976 fps
    Color space : YUV
    Chroma subsampling : 4:2:0
    Bit depth : 8 bits
    Scan type : Progressive
    Bits/(Pixel*Frame) : 0.266
    Stream size : 1.21 GiB (80%)
    Writing library : x264 core 142 r2479 dd79a61
    Encoding settings : cabac=1 / ref=3 / deblock=1:-1:-1 / analyse=0x3:0x113 / me=hex / subme=7 / psy=1 / psy_rd=1.00:0.15 / mixed_ref=1 / me_range=16 / chroma_me=1 / trellis=1 / 8x8dct=1 / cqm=0 / deadzone=21,11 / fast_pskip=1 / chroma_qp_offset=-3 / threads=3 / lookahead_threads=1 / sliced_threads=0 / nr=0 / decimate=1 / interlaced=0 / bluray_compat=0 / constrained_intra=0 / bframes=3 / b_pyramid=2 / b_adapt=1 / b_bias=0 / direct=1 / weightb=1 / open_gop=0 / weightp=2 / keyint=240 / keyint_min=23 / scenecut=40 / intra_refresh=0 / rc_lookahead=40 / rc=abr / mbtree=1 / bitrate=1800 / ratetol=1.0 / qcomp=0.60 / qpmin=0 / qpmax=69 / qpstep=4 / vbv_maxrate=25000 / vbv_bufsize=31250 / nal_hrd=none / filler=0 / ip_ratio=1.40 / aq=1:1.00
    Default : Yes
    Forced : No
    Audio
    ID : 2
    Format : AC-3
    Format/Info : Audio Coding 3
    Mode extension : CM (complete main)
    Format settings, Endianness : Big
    Codec ID : A_AC3
    Duration : 1h 40mn
    Bit rate mode : Constant
    Bit rate : 384 Kbps
    Channel(s) : 6 channels
    Channel positions : Front: L C R, Side: L R, LFE
    Sampling rate : 48.0 KHz
    Bit depth : 16 bits
    Compression mode : Lossy
    Stream size : 275 MiB (18%)
    Language : Spanish
    Default : Yes
    Forced : No

    Фрагмент субтитров

    357
    00:43:08,252 --> 00:43:10,027
    На что были бы похожи мои похороны?
    358
    00:43:11,956 --> 00:43:14,994
    Там я могла бы узнать, сколько людей
    меня любило.
    359
    00:43:17,027 --> 00:43:18,870
    Кто меня любил.
    360
    00:43:20,197 --> 00:43:22,700
    Одни бы плакали, другие бы просто не пришли.
    361
    00:43:24,835 --> 00:43:27,145
    Была ли ты важна для третьих.
    362
    00:43:30,174 --> 00:43:31,949
    На что были бы похожи твои похороны?
    363
    00:43:33,077 --> 00:43:34,283
    На них бы никто не пришел.
    364
    00:43:35,779 --> 00:43:37,122
    В каком смысле, никто?
    365
    00:43:37,314 --> 00:43:38,258
    Никто.
    366
    00:43:38,315 --> 00:43:39,055
    А я?
    367
    00:43:39,116 --> 00:43:41,289
    Никто из вас бы не пришел,
    ты бы осталась с Акселем.

    Скриншот c названием фильма

    Скриншоты

    Скачать .torrent

    Скачать торрент-файл бесплатно и на максимальной скорости!

    Как скачивать? · Что такое торрент? · Рейтинг и ограничения

    !ВНИМАНИЕ!
    Сайт не распространяет и не хранит электронные версии произведений, а занимается лишь лишь предоставлением доступа к создаваемому пользователями каталогу ссылок на торрент-файлы, которые содержат только списки хеш-сумм, убедительная просьба с жалобами обращаться напрямую к пользователю. Файлы для обмена на трекере предоставлены пользователями сайта, и администрация не несёт ответственности за их содержание. Просьба не заливать файлы, защищенные авторскими правами, а также файлы нелегального содержания!


    _________________
    [Профиль] [ЛС]
    Показать сообщения:    
    Ответить на тему

    Текущее время: Сегодня, в 16:39

    Часовой пояс: GMT + 2



    Вы не можете начинать темы
    Вы не можете отвечать на сообщения
    Вы не можете редактировать свои сообщения
    Вы не можете удалять свои сообщения
    Вы не можете голосовать в опросах
    Вы не можете прикреплять файлы к сообщениям
    Вы не можете скачивать файлы