BitTorrentTracker PerecTracker.org
BitTorrentTracker PerecTracker.org
    
Регистрация  ·  Вход
 
 · 
Забыли пароль?

  • Убить гонца / Kill the Messenger (Майкл Куэста / Michael Cuesta) [2014, США, триллер, драма, криминал, детектив, HDRip] Dub (R5)

    Ответить на тему
     
    Автор Сообщение

    Light

    Создавать темы 12-Авг-2015 13:08

           

    [Цитировать]

    Убить гонца / Kill the Messenger
    Страна: США
    Жанр: триллер, драма, криминал, детектив
    Год выпуска: 2014
    Продолжительность: 01:51:55
    Перевод: Профессиональный (дублированный) R5
    Cубтитры: нет
    Режиссер: Майкл Куэста / Michael Cuesta
    В ролях: Джереми Реннер, Роберт Патрик, Роберт Пралго, Хаджи Голайтли, Тед Хукаби, Мэри Элизабет Уинстэд, Лукас Хеджес, Розмари ДеУитт, Мэттью Линтц, Паркер Дуглас
    Описание: Репортер, собирая материал для статьи, попадает в нестандартную ситуацию: он находит секретные файлы ЦРУ, в которых четко прописано причастие госорганов к транспортировке кокаина в особо крупных размерах в Калифорнию. Несмотря на все неприятности, последующие за разоблачением, публикация выходит в одном из самых известных журналов США. Существование репортера становится нежелательным для всех, кто хоть как-то соприкасался с «кокаиновым» делом. После широкой огласки статьи убить журналиста просто так нельзя, ведь тогда правдивость материала станет очевидной, зато ведомство может обвинить репортера в другом…
    Сэмпл: http://multi-up.com/1061766
    Качество видео: HDRip
    Формат видео: AVI
    Видео: 720x304 (2.37:1), 24 fps, XviD build 73 ~1417 kbps avg, 0.27 bit/pixel
    Аудио: 48 kHz, AC3 Dolby Digital, 3/2 (L,C,R,l,r) + LFE ch, ~448 kbps

    MediaInfo

    Формат : AVI
    Формат/Информация : Audio Video Interleave
    Размер файла : 1,47 Гбайт
    Продолжительность : 1 ч. 51 м.
    Общий поток : 1875 Кбит/сек
    Программа кодирования : VirtualDubMod 1.5.10.3 | www.virtualdub-fr.org || (build 2550/release)
    Библиотека кодирования : VirtualDubMod build 2550/release
    Видео
    Идентификатор : 0
    Формат : MPEG-4 Visual
    Профиль формата : Advanced Simple@L5
    Параметр BVOP формата : 1
    Параметр QPel формата : Нет
    Параметр GMC формата : Без точки перехода
    Параметр матрицы формата : Выборочная
    Идентификатор кодека : XVID
    Идентификатор кодека/Подсказка : XviD
    Продолжительность : 1 ч. 51 м.
    Битрейт : 1418 Кбит/сек
    Ширина : 720 пикселей
    Высота : 304 пикселя
    Соотношение сторон : 2,35:1
    Частота кадров : 24,000 кадра/сек
    Цветовое пространство : YUV
    Субдискретизация насыщенности : 4:2:0
    Битовая глубина : 8 бит
    Тип развёртки : Прогрессивная
    Метод сжатия : С потерями
    Бит/(Пиксели*Кадры) : 0.270
    Размер потока : 1,11 Гбайт (76%)
    Библиотека кодирования : XviD 73
    Аудио
    Идентификатор : 1
    Формат : AC-3
    Формат/Информация : Audio Coding 3
    Расширение режима : CM (complete main)
    Параметр Endianness формата : Big
    Идентификатор кодека : 2000
    Продолжительность : 1 ч. 51 м.
    Вид битрейта : Постоянный
    Битрейт : 448 Кбит/сек
    Каналы : 6 каналов
    Расположение каналов : Front: L C R, Side: L R, LFE
    Частота : 48,0 КГц
    Битовая глубина : 16 бит
    Метод сжатия : С потерями
    Размер потока : 358 Мбайт (24%)
    Выравнивание : Разделение по промежуткам
    Продолжительность промежутка : 42 мс. (1,00 видеокадр)
    Время предзагрузки промежутка : 500 мс.

    Скриншоты

    Скачать .torrent

    Скачать торрент-файл бесплатно и на максимальной скорости!

    Как скачивать? · Что такое торрент? · Рейтинг и ограничения

    !ВНИМАНИЕ!
    Сайт не распространяет и не хранит электронные версии произведений, а занимается лишь лишь предоставлением доступа к создаваемому пользователями каталогу ссылок на торрент-файлы, которые содержат только списки хеш-сумм, убедительная просьба с жалобами обращаться напрямую к пользователю. Файлы для обмена на трекере предоставлены пользователями сайта, и администрация не несёт ответственности за их содержание. Просьба не заливать файлы, защищенные авторскими правами, а также файлы нелегального содержания!


    _________________
    [Профиль] [ЛС]
    Показать сообщения:    
    Ответить на тему

    Текущее время: Сегодня, в 12:33

    Часовой пояс: GMT + 2



    Вы не можете начинать темы
    Вы не можете отвечать на сообщения
    Вы не можете редактировать свои сообщения
    Вы не можете удалять свои сообщения
    Вы не можете голосовать в опросах
    Вы не можете прикреплять файлы к сообщениям
    Вы не можете скачивать файлы