BitTorrentTracker PerecTracker.org
BitTorrentTracker PerecTracker.org
    
Регистрация  ·  Вход
 
 · 
Забыли пароль?

  • Рождество с Мертвецами / Christmas With The Dead (Т.Л. Лэнкфорд / T.L. Lankford) [2012, США, Ужасы, DVDRip] VO (Васька Куролесов)

    Ответить на тему
     
    Автор Сообщение

    Light

    Создавать темы 12-Авг-2015 13:08

           

    [Цитировать]

    Рождество с Мертвецами / Christmas With The Dead
    Страна: США
    Жанр: Ужасы
    Год выпуска: 2012
    Продолжительность: 01:26:37
    Перевод: Одноголосый закадровый Васька Куролесов по субтитрам Dekadansu
    Cубтитры: нет
    Оригинальная аудиодорожка: нет
    Режиссер: Т.Л. Лэнкфорд / T.L. Lankford
    В ролях: Дэмиэн Маффей, Чет Уильямсон, Кэти Чэмберс, Клайд Уильямс, Адам Коутс, Кристен Рейд, Шери Хамбрик, Корбин Хаббард и другие...
    Описание: Простой чувак Келвин, накосячив перед Рождеством, обещает своей жене с дочкой устроить шикарный праздник, которому мешает упавший с неба метеорит, превративший всех жителей в зомби. Страдая от того, что не смог исполнить обещание, Келвин пытается выжить в опустевшем городе среди ходячих мертвецов, пока однажды не встречает мусорщика, очищающего город от мертвого мусора. Он предлагает Келвину все исправить и вернуть в город Рождество посреди июля. Короче, Дух Рождества не умрет никогда.

    Релиз от:
    Доп.инфа: отдельное спасибо mcdv2641, зом, ngame, storog за финансирование перевода!
    Семпл
    Качество видео: DVDRip
    Формат видео: AVI
    Видео: 720x400; ~1918 kbps; 23.976 fps;
    Аудио: AC-3; ~192 kbps, 48000Hz, 2 ch
    Присутствует ненормативная лексика!

    MediaInfo

    General
    Complete name : G:\Christmas With The Dead.2012_KypoJIecoB.avi
    Format : AVI
    Format/Info : Audio Video Interleave
    File size : 1.28 GiB
    Duration : 1h 26mn
    Overall bit rate : 2 119 Kbps
    Video
    ID : 0
    Format : MPEG-4 Visual
    Format profile : Advanced Simple@L5
    Format settings, BVOP : 2
    Format settings, QPel : No
    Format settings, GMC : No warppoints
    Format settings, Matrix : Default (H.263)
    Codec ID : XVID
    Codec ID/Hint : XviD
    Duration : 1h 26mn
    Bit rate : 1 918 Kbps
    Width : 720 pixels
    Height : 400 pixels
    Display aspect ratio : 16:9
    Frame rate : 23.976 fps
    Color space : YUV
    Chroma subsampling : 4:2:0
    Bit depth : 8 bits
    Scan type : Progressive
    Compression mode : Lossy
    Bits/(Pixel*Frame) : 0.278
    Stream size : 1.16 GiB (90%)
    Writing library : XviD 67
    Audio
    ID : 1
    Format : AC-3
    Format/Info : Audio Coding 3
    Mode extension : CM (complete main)
    Format settings, Endianness : Big
    Codec ID : 2000
    Duration : 1h 26mn
    Bit rate mode : Constant
    Bit rate : 192 Kbps
    Channel(s) : 2 channels
    Channel positions : Front: L R
    Sampling rate : 48.0 KHz
    Compression mode : Lossy
    Stream size : 119 MiB (9%)
    Alignment : Split accross interleaves
    Interleave, duration : 42 ms (1.00 video frame)
    Interleave, preload duration : 500 ms

    Скриншот c названием фильма

    Скриншоты

    Скачать .torrent

    Скачать торрент-файл бесплатно и на максимальной скорости!

    Как скачивать? · Что такое торрент? · Рейтинг и ограничения

    !ВНИМАНИЕ!
    Сайт не распространяет и не хранит электронные версии произведений, а занимается лишь лишь предоставлением доступа к создаваемому пользователями каталогу ссылок на торрент-файлы, которые содержат только списки хеш-сумм, убедительная просьба с жалобами обращаться напрямую к пользователю. Файлы для обмена на трекере предоставлены пользователями сайта, и администрация не несёт ответственности за их содержание. Просьба не заливать файлы, защищенные авторскими правами, а также файлы нелегального содержания!


    _________________
    [Профиль] [ЛС]
    Показать сообщения:    
    Ответить на тему

    Текущее время: Сегодня, в 14:33

    Часовой пояс: GMT + 2



    Вы не можете начинать темы
    Вы не можете отвечать на сообщения
    Вы не можете редактировать свои сообщения
    Вы не можете удалять свои сообщения
    Вы не можете голосовать в опросах
    Вы не можете прикреплять файлы к сообщениям
    Вы не можете скачивать файлы