BitTorrentTracker PerecTracker.org
BitTorrentTracker PerecTracker.org
    
Регистрация  ·  Вход
 
 · 
Забыли пароль?

  • Звук моего голоса / Sound of my voice (Зал Батманглидж / Zal Batmanglij) [2011, США, триллер, драма, HDRip] MVO (СТС) + Original Eng

    Ответить на тему
     
    Автор Сообщение

    Light

    Создавать темы 12-Авг-2015 13:08

           

    [Цитировать]

    Звук моего голоса / Sound of my voice
    Страна: США
    Жанр: триллер, драма
    Год выпуска: 2011
    Продолжительность: 01:25:17
    Перевод: Профессиональный (многоголосый закадровый) СТС
    Cубтитры: нет
    Оригинальная аудиодорожка: английский
    Режиссер: Зал Батманглидж / Zal Batmanglij
    В ролях: Кристофер Денхам, Николь Вишус, Брит Марлинг, Давиния МакФэдден, Кэндис Стро, Ричард Уортон, Кристин Мейерс, Элвин Лам, Констанс Ву, Мэттью Кэри
    Описание: Молодая пара, Питер и Лорна, решают снять документальный фильм в жанре журналистского расследования о новой секте, распространяющей своё влияние в Долине Сан-Фернандо. Секту возглавляет загадочная девушка по имени Мэгги, утверждающая, что она - гостья из будущего и обещает адептам своей религии безопасное место, в котором те спасутся во время грядущих ужасных событий. Питер и Лорна уверены, что она шарлатанка и хотят вызволить её последователей из пут её культа. Внедрившись в группу под видом новых участников, они исследуют секту изнутри. Но со временем им начинает казаться, что история Мэгги может быть правдой.
    Сэмпл: http://multi-up.com/1061930
    Качество видео: HDRip
    Формат видео: AVI
    Видео: MPEG4, XviD, 720x384 (1.875), 23.976 fps, 1 784 Kbps (0.269 bit/pixel)
    Аудио: AC-3, 48.0 KHz, 2 ch, 192 Kbps, CBR - русский
    Аудио 2: AC-3, 48.0 KHz, 6 ch, 448 Kbps, CBR - английский

    MediaInfo

    Общее
    Полное имя : K:\Звук моего голоса.avi
    Формат : AVI
    Формат/Информация : Audio Video Interleave
    Размер файла : 1,45 Гбайт
    Продолжительность : 1 ч. 25 м.
    Общий поток : 2439 Кбит/сек
    Название фильма : Звук моего голоса / Sound of my voice (2011)
    Программа кодирования : VirtualDubMod 1.5.10.2 (build 2540/release)
    Библиотека кодирования : VirtualDubMod build 2540/release
    Авторское право : miha2154
    Видео
    Идентификатор : 0
    Формат : MPEG-4 Visual
    Профиль формата : Advanced Simple@L5
    Параметр BVOP формата : 1
    Параметр QPel формата : Нет
    Параметр GMC формата : Без точки перехода
    Параметр матрицы формата : Выборочная
    Идентификатор кодека : XVID
    Идентификатор кодека/Подсказка : XviD
    Продолжительность : 1 ч. 25 м.
    Битрейт : 1784 Кбит/сек
    Ширина : 720 пикселей
    Высота : 384 пикселя
    Соотношение сторон : 1,85:1
    Частота кадров : 23,976 кадра/сек
    Цветовое пространство : YUV
    Субдискретизация насыщенности : 4:2:0
    Битовая глубина : 8 бит
    Тип развёртки : Прогрессивная
    Метод сжатия : С потерями
    Бит/(Пиксели*Кадры) : 0.269
    Размер потока : 1,06 Гбайт (73%)
    Библиотека кодирования : XviD 65
    Аудио #1
    Идентификатор : 1
    Формат : AC-3
    Формат/Информация : Audio Coding 3
    Расширение режима : CM (complete main)
    Параметр Endianness формата : Big
    Идентификатор кодека : 2000
    Продолжительность : 1 ч. 25 м.
    Вид битрейта : Постоянный
    Битрейт : 192 Кбит/сек
    Каналы : 2 канала
    Расположение каналов : Front: L R
    Частота : 48,0 КГц
    Метод сжатия : С потерями
    Размер потока : 117 Мбайт (8%)
    Выравнивание : Разделение по промежуткам
    Продолжительность промежутка : 42 мс. (1,00 видеокадр)
    Время предзагрузки промежутка : 500 мс.
    Заголовок : Профессиональный (многоголосый закадровый) СТС
    Аудио #2
    Идентификатор : 2
    Формат : AC-3
    Формат/Информация : Audio Coding 3
    Расширение режима : CM (complete main)
    Параметр Endianness формата : Big
    Идентификатор кодека : 2000
    Продолжительность : 1 ч. 25 м.
    Вид битрейта : Постоянный
    Битрейт : 448 Кбит/сек
    Каналы : 6 каналов
    Расположение каналов : Front: L C R, Side: L R, LFE
    Частота : 48,0 КГц
    Метод сжатия : С потерями
    Размер потока : 273 Мбайт (18%)
    Выравнивание : Разделение по промежуткам
    Продолжительность промежутка : 42 мс. (1,00 видеокадр)
    Время предзагрузки промежутка : 500 мс.
    Заголовок : Английский

    Скриншоты


    Скачать .torrent

    Скачать торрент-файл бесплатно и на максимальной скорости!

    Как скачивать? · Что такое торрент? · Рейтинг и ограничения

    !ВНИМАНИЕ!
    Сайт не распространяет и не хранит электронные версии произведений, а занимается лишь лишь предоставлением доступа к создаваемому пользователями каталогу ссылок на торрент-файлы, которые содержат только списки хеш-сумм, убедительная просьба с жалобами обращаться напрямую к пользователю. Файлы для обмена на трекере предоставлены пользователями сайта, и администрация не несёт ответственности за их содержание. Просьба не заливать файлы, защищенные авторскими правами, а также файлы нелегального содержания!


    _________________
    [Профиль] [ЛС]
    Показать сообщения:    
    Ответить на тему

    Текущее время: Сегодня, в 08:25

    Часовой пояс: GMT + 2



    Вы не можете начинать темы
    Вы не можете отвечать на сообщения
    Вы не можете редактировать свои сообщения
    Вы не можете удалять свои сообщения
    Вы не можете голосовать в опросах
    Вы не можете прикреплять файлы к сообщениям
    Вы не можете скачивать файлы