BitTorrentTracker PerecTracker.org
BitTorrentTracker PerecTracker.org
    
Регистрация  ·  Вход
 
 · 
Забыли пароль?

  • Столетний старик, который вылез в окно и исчез / Hundraaringen som klev ut genom fonstret och forsvann (Феликс Хернгрен / Felix Herngren) [2013, Швеция, Великобритания, Франция, Испания, Россия, комедия, приключения, BDRip-AVC] MVO + Sub (Rus, Eng)

    Ответить на тему
     
    Автор Сообщение

    Light

    Создавать темы 12-Авг-2015 13:08

           

    [Цитировать]

    Столетний старик, который вылез в окно и исчез
    Hundraåringen som klev ut genom fönstret och försvann
    «Things are what they are, and whatever will be will be»


    Страна: Швеция, Великобритания, Франция, Испания, Россия
    Жанр: комедия, приключения
    Год выпуска: 2013
    Продолжительность: 01:54:17
    Перевод: Профессиональный (многоголосый, закадровый)
    Субтитры: русские, английские
    Оригинальная аудиодорожка: нет
    Режиссер: Феликс Хернгрен / Felix Herngren
    В ролях: Роберт Густафссон, Ивар Викландер, Давид Виберг, Миа Шерингер, Йенс Хультен, Бианка Крузейро, Алан Форд, Свен Лённ, Дэвид Шеклтон, Георг Николофф, Simon Säppenen, Manuel Dubra
    Описание:
    В день празднования своего столетия юбиляр вылезает через окно дома престарелых на газон и уходит. Уходит не куда-то, а от чего-то. От бессмысленного доживания в богадельне. В первый же час он ухитряется поссориться с бандитами и уехать в неизвестном направлении. Вскоре становится понятно, что все сто лет его жизни - сплошные приключения. Он, вроде бы, всегда плывет по течению, но почему-то всегда приплывает к любимым занятиям - застольям и разного рода взрывам. Перезнакомившись, при разных юмористических обстоятельствах, с большинством сильных своего времени - Франко, Труменом, Сталиным - и изрядно повлияв на историю двадцатого века, он остается самим собой.

    Релиз:
    Автор рипа: Stalker oK
    Сэмпл
    Качество видео: BDRip-AVC [Blu-ray Remux 1080p-rutor]
    Формат видео: MKV
    Видео кодек: AVC
    Аудио кодек: AC3
    Видео: 1434 Кбит/сек, 936x392 (2.35:1), 24 кадр/сек, AVC
    Аудио: русский, 384 Кбит/сек, 48 КГц, 16 бит, 5.1, AC3
    Навигация по главам: есть

    MediaInfo

    General
    Unique ID : 247440908744404961203212210240400229350 (0xBA2762B42C52B7C2B78F04D4A3AD83E6)
    Complete name : M:\Рипы\Столетний старик, который вылез в окно и исчез\The.100-Year-Old.Man.Who.Climbed.Out.the.Window.and.Disappeared.2013.BDRip-AVC.MVO.1.45Gb...stalkerok.new-team.mkv
    Format : Matroska
    File size : 1.45 GiB
    Duration : 1h 54mn
    Overall bit rate : 1 818 Kbps
    Movie name : Hundraaringen som klev ut genom fonstret och forsvann (2013) (New-Team) (Rip by Stalker oK)
    Encoded date : UTC 2015-08-10 10:30:10
    Writing application : mkvmerge v7.9.0 ('Birds') 64bit
    Writing library : libebml v1.3.1 + libmatroska v1.4.2
    Video
    ID : 1
    Format : AVC
    Format/Info : Advanced Video Codec
    Format profile : High@L4.1
    Format settings, CABAC : Yes
    Format settings, ReFrames : 12 frames
    Codec ID : V_MPEG4/ISO/AVC
    Duration : 1h 54mn
    Bit rate : 1 434 Kbps
    Width : 936 pixels
    Height : 392 pixels
    Display aspect ratio : 2.35:1
    Frame rate : 24.000 fps
    Color space : YUV
    Chroma subsampling : 4:2:0
    Bit depth : 8 bits
    Scan type : Progressive
    Bits/(Pixel*Frame) : 0.163
    Stream size : 1.12 GiB (77%)
    Title : Hundraaringen som klev ut genom fonstret och forsvann (2013) (New-Team) (Rip by Stalker oK)
    Writing library : x264 core 146 r2538kMod 121396c
    Encoding settings : cabac=1 / ref=12 / deblock=1:-3:-2 / analyse=0x3:0x133 / me=umh / subme=11 / psy=1 / fade_compensate=0.00 / psy_rd=1.00:0.10 / mixed_ref=1 / me_range=48 / chroma_me=1 / trellis=2 / 8x8dct=1 / cqm=0 / deadzone=21,11 / fast_pskip=0 / chroma_qp_offset=-3 / threads=12 / lookahead_threads=3 / sliced_threads=0 / nr=0 / decimate=0 / interlaced=0 / bluray_compat=0 / constrained_intra=0 / fgo=0 / bframes=14 / b_pyramid=2 / b_adapt=2 / b_bias=0 / direct=3 / weightb=1 / open_gop=0 / weightp=2 / keyint=240 / keyint_min=24 / scenecut=40 / intra_refresh=0 / rc_lookahead=60 / rc=2pass / mbtree=0 / bitrate=1434 / ratetol=1.0 / qcomp=0.70 / qpmin=0 / qpmax=69 / qpstep=4 / cplxblur=20.0 / qblur=0.5 / vbv_maxrate=50000 / vbv_bufsize=62500 / nal_hrd=none / filler=0 / ip_ratio=1.40 / pb_ratio=1.30 / aq=3:0.85
    Audio
    ID : 2
    Format : AC-3
    Format/Info : Audio Coding 3
    Mode extension : CM (complete main)
    Codec ID : A_AC3
    Duration : 1h 54mn
    Bit rate mode : Constant
    Bit rate : 384 Kbps
    Channel(s) : 6 channels
    Channel positions : Front: L C R, Side: L R, LFE
    Sampling rate : 48.0 KHz
    Bit depth : 16 bits
    Compression mode : Lossy
    Stream size : 314 MiB (21%)
    Language : Russian
    Text #1
    ID : 3
    Format : UTF-8
    Codec ID : S_TEXT/UTF8
    Codec ID/Info : UTF-8 Plain Text
    Language : Russian
    Text #2
    ID : 4
    Format : UTF-8
    Codec ID : S_TEXT/UTF8
    Codec ID/Info : UTF-8 Plain Text
    Language : English
    Menu
    00:00:00.000 : :Chapter 01
    00:15:04.916 : :Chapter 02
    00:30:15.750 : :Chapter 03
    00:44:48.583 : :Chapter 04
    00:58:23.083 : :Chapter 05
    01:14:06.291 : :Chapter 06
    01:31:16.582 : :Chapter 07
    01:48:33.750 : :Chapter 08
    01:54:06.500 : :Chapter 09

    Скриншоты

    Скачать .torrent

    Скачать торрент-файл бесплатно и на максимальной скорости!

    Как скачивать? · Что такое торрент? · Рейтинг и ограничения

    !ВНИМАНИЕ!
    Сайт не распространяет и не хранит электронные версии произведений, а занимается лишь лишь предоставлением доступа к создаваемому пользователями каталогу ссылок на торрент-файлы, которые содержат только списки хеш-сумм, убедительная просьба с жалобами обращаться напрямую к пользователю. Файлы для обмена на трекере предоставлены пользователями сайта, и администрация не несёт ответственности за их содержание. Просьба не заливать файлы, защищенные авторскими правами, а также файлы нелегального содержания!


    _________________
    [Профиль] [ЛС]
    Показать сообщения:    
    Ответить на тему

    Текущее время: Сегодня, в 09:59

    Часовой пояс: GMT + 2



    Вы не можете начинать темы
    Вы не можете отвечать на сообщения
    Вы не можете редактировать свои сообщения
    Вы не можете удалять свои сообщения
    Вы не можете голосовать в опросах
    Вы не можете прикреплять файлы к сообщениям
    Вы не можете скачивать файлы