BitTorrentTracker PerecTracker.org
BitTorrentTracker PerecTracker.org
    
Регистрация  ·  Вход
 
 · 
Забыли пароль?

  • Столетний старик, который вылез в окно и исчез / Hundraaringen som klev ut genom fonstret och forsvann (Феликс Хернгрен / Felix Herngren) [2013, Швеция, Великобритания, Франция, Испания, Россия, комедия, приключения, BDRip-AVC] MVO + Original + Sub

    Ответить на тему
     
    Автор Сообщение

    Light

    Создавать темы 12-Авг-2015 13:08

           

    [Цитировать]

    Столетний старик, который вылез в окно и исчез
    Hundraåringen som klev ut genom fönstret och försvann
    «Things are what they are, and whatever will be will be»


    Страна: Швеция, Великобритания, Франция, Испания, Россия
    Жанр: комедия, приключения
    Год выпуска: 2013
    Продолжительность: 01:54:17
    Перевод: Профессиональный (многоголосый, закадровый)
    Субтитры: русские, английские
    Оригинальная аудиодорожка: шведский
    Режиссер: Феликс Хернгрен / Felix Herngren
    В ролях: Роберт Густафссон, Ивар Викландер, Давид Виберг, Миа Шерингер, Йенс Хультен, Бианка Крузейро, Алан Форд, Свен Лённ, Дэвид Шеклтон, Георг Николофф, Simon Säppenen, Manuel Dubra
    Описание:
    В день празднования своего столетия юбиляр вылезает через окно дома престарелых на газон и уходит. Уходит не куда-то, а от чего-то. От бессмысленного доживания в богадельне. В первый же час он ухитряется поссориться с бандитами и уехать в неизвестном направлении. Вскоре становится понятно, что все сто лет его жизни - сплошные приключения. Он, вроде бы, всегда плывет по течению, но почему-то всегда приплывает к любимым занятиям - застольям и разного рода взрывам. Перезнакомившись, при разных юмористических обстоятельствах, с большинством сильных своего времени - Франко, Труменом, Сталиным - и изрядно повлияв на историю двадцатого века, он остается самим собой.

    Релиз:
    Автор рипа: Stalker oK
    Сэмпл
    Качество видео: BDRip-AVC [Blu-ray Remux 1080p-rutor]
    Формат видео: MKV
    Видео кодек: AVC
    Аудио кодек: AC3
    Видео: 1899 Кбит/сек, 1032*432 (2,35:1), в 24,000 кадр/сек, AVC
    Аудио №1: русский, 384 Кбит/сек, 48,0 КГц, 16 бит, 6 канала(ов), AC-3
    Аудио №2: шведский, 448 Кбит/сек, 48,0 КГц, 16 бит, 6 канала(ов), AC-3
    Навигация по главам: есть

    MediaInfo

    Общее
    Уникальный идентификатор : 223878368830431473390698000375025286068 (0xA86D67CB1EA0F6D2A4EEC9702D70BBB4)
    Полное имя : M:\Рипы\Столетний старик, который вылез в окно и исчез\The.100-Year-Old.Man.Who.Climbed.Out.the.Window.and.Disappeared.2013.BDRip-AVC.MVO.2.18Gb...stalkerok.new-team.mkv
    Формат : Matroska
    Размер файла : 2,18 Гбайт
    Продолжительность : 1 ч. 54 м.
    Общий поток : 2731 Кбит/сек
    Название фильма : Hundraåringen som klev ut genom fönstret och försvann (2013) (New-Team) (Rip by Stalker oK)
    Дата кодирования : UTC 2015-08-10 10:42:38
    Программа кодирования : mkvmerge v7.9.0 ('Birds') 64bit
    Библиотека кодирования : libebml v1.3.1 + libmatroska v1.4.2
    Видео
    Идентификатор : 1
    Формат : AVC
    Формат/Информация : Advanced Video Codec
    Профиль формата : High@L4.1
    Параметр CABAC формата : Да
    Параметр ReFrames формата : 11 кадры
    Идентификатор кодека : V_MPEG4/ISO/AVC
    Продолжительность : 1 ч. 54 м.
    Битрейт : 1899 Кбит/сек
    Ширина : 1032 пикс.
    Высота : 432 пикс.
    Соотношение сторон : 2,35:1
    Частота кадров : 24,000 кадр/сек
    Цветовое пространство : YUV
    Подвыборка цветности : 4:2:0
    Битовая глубина : 8 бит
    Тип развёртки : Прогрессивная
    Бит/(Пиксели*Кадры) : 0.177
    Размер потока : 1,47 Гбайт (68%)
    Заголовок : Hundraåringen som klev ut genom fönstret och försvann (2013) (New-Team) (Rip by Stalker oK)
    Библиотека кодирования : x264 core 146 r2538kMod 121396c
    Настройки программы : cabac=1 / ref=11 / deblock=1:-3:-2 / analyse=0x3:0x133 / me=umh / subme=11 / psy=1 / fade_compensate=0.00 / psy_rd=1.00:0.10 / mixed_ref=1 / me_range=48 / chroma_me=1 / trellis=2 / 8x8dct=1 / cqm=0 / deadzone=21,11 / fast_pskip=0 / chroma_qp_offset=-3 / threads=12 / lookahead_threads=3 / sliced_threads=0 / nr=0 / decimate=0 / interlaced=0 / bluray_compat=0 / constrained_intra=0 / fgo=0 / bframes=13 / b_pyramid=2 / b_adapt=2 / b_bias=0 / direct=3 / weightb=1 / open_gop=0 / weightp=2 / keyint=240 / keyint_min=24 / scenecut=40 / intra_refresh=0 / rc_lookahead=60 / rc=2pass / mbtree=0 / bitrate=1899 / ratetol=1.0 / qcomp=0.70 / qpmin=0 / qpmax=69 / qpstep=4 / cplxblur=20.0 / qblur=0.5 / vbv_maxrate=50000 / vbv_bufsize=62500 / nal_hrd=none / filler=0 / ip_ratio=1.40 / pb_ratio=1.30 / aq=3:0.85
    Аудио #1
    Идентификатор : 2
    Формат : AC-3
    Формат/Информация : Audio Coding 3
    Расширение режима : CM (complete main)
    Идентификатор кодека : A_AC3
    Продолжительность : 1 ч. 54 м.
    Вид битрейта : Постоянный
    Битрейт : 384 Кбит/сек
    Канал(ы) : 6 канала(ов)
    Расположение каналов : Front: L C R, Side: L R, LFE
    Частота : 48,0 КГц
    Битовая глубина : 16 бит
    Метод сжатия : С потерями
    Размер потока : 314 Мбайт (14%)
    Язык : Russian
    Аудио #2
    Идентификатор : 5
    Формат : AC-3
    Формат/Информация : Audio Coding 3
    Расширение режима : CM (complete main)
    Идентификатор кодека : A_AC3
    Продолжительность : 1 ч. 54 м.
    Вид битрейта : Постоянный
    Битрейт : 448 Кбит/сек
    Канал(ы) : 6 канала(ов)
    Расположение каналов : Front: L C R, Side: L R, LFE
    Частота : 48,0 КГц
    Битовая глубина : 16 бит
    Метод сжатия : С потерями
    Размер потока : 366 Мбайт (16%)
    Заголовок : Original
    Язык : Swedish
    Текст #1
    Идентификатор : 3
    Формат : UTF-8
    Идентификатор кодека : S_TEXT/UTF8
    Идентификатор кодека/Информация : UTF-8 Plain Text
    Язык : Russian
    Текст #2
    Идентификатор : 4
    Формат : UTF-8
    Идентификатор кодека : S_TEXT/UTF8
    Идентификатор кодека/Информация : UTF-8 Plain Text
    Язык : English
    Меню
    00:00:00.000 : :Chapter 01
    00:15:04.916 : :Chapter 02
    00:30:15.750 : :Chapter 03
    00:44:48.583 : :Chapter 04
    00:58:23.083 : :Chapter 05
    01:14:06.291 : :Chapter 06
    01:31:16.582 : :Chapter 07
    01:48:33.750 : :Chapter 08
    01:54:06.500 : :Chapter 09

    Скриншоты

    Скачать .torrent

    Скачать торрент-файл бесплатно и на максимальной скорости!

    Как скачивать? · Что такое торрент? · Рейтинг и ограничения

    !ВНИМАНИЕ!
    Сайт не распространяет и не хранит электронные версии произведений, а занимается лишь лишь предоставлением доступа к создаваемому пользователями каталогу ссылок на торрент-файлы, которые содержат только списки хеш-сумм, убедительная просьба с жалобами обращаться напрямую к пользователю. Файлы для обмена на трекере предоставлены пользователями сайта, и администрация не несёт ответственности за их содержание. Просьба не заливать файлы, защищенные авторскими правами, а также файлы нелегального содержания!


    _________________
    [Профиль] [ЛС]
    Показать сообщения:    
    Ответить на тему

    Текущее время: Сегодня, в 18:27

    Часовой пояс: GMT + 2



    Вы не можете начинать темы
    Вы не можете отвечать на сообщения
    Вы не можете редактировать свои сообщения
    Вы не можете удалять свои сообщения
    Вы не можете голосовать в опросах
    Вы не можете прикреплять файлы к сообщениям
    Вы не можете скачивать файлы